Автор Сообщение
BOSS

112

Наличие запрета:

Пол: Мужской

Стаж: 6 года

Сообщений: 4434

Откуда: ODESSA

 Top Releaser 2 (250 созданных раздач) Top Releaser 3 (300 созданных раздач) Top Releaser 3 (500 созданных раздач) Top Releaser 4 (1000 созданных раздач) Top Releaser 5 (3000 созданных раздач) Активисту Активный модератор Верный пользователь ХитРусТор За внесенный вклад в развитие сайта За новинки фильмов Уважаемый

Год выпуска: 2020
Производство: США / Marvel Studios Inc., Walt Disney Pictures, Zak Productions
Жанр: Фантастика, боевик, приключения
Режиссер: Кейт Шортланд
Продюсеры: Кевин Файги, Закария Алауи, Виктория Алонсо
Актеры: Скарлетт Йоханссон, Флоренс Пью, Роберт Дауни мл., Рэйчел Вайс, Дэвид Харбор, Уильям Хёрт, Рэй Уинстон, О. Т. Фагбенли, Мишель Ли, Оливье Рихтерс
Описание:
После событий в аэропорту «Лейпциг-Галле» Наташу настигли ошибки прошлого. Вновь дала о себе знать «Красная комната» — программа по созданию таких же, как она, Вдов — профессиональных убийц и шпионов. Наташа решает раз и навсегда разобраться с людьми, стараниями которых она сама стала Вдовой.
Перевод: Дублированный
Субтитры: Нет-Дата мировой премьеры: 22 апреля 2020
Дата российской премьеры: 30 апреля 2020, «WDSSPR»
-Продолжительность: 00:02:09
Качество видео: WEBRip 1080p-Видео: H264, 1920x804, 34,5 Мбит/сек
Аудио 1: MP3 2.0, 128 Кбит/сек [Русский - дублированный]
Аудио 2: PCM 2.0, 2304 Кбит/сек [Английский - оригинал]

MediaInfo:

Общее
Уникальный идентификатор : 162282143994027904660085560342900466904 (0x7A1667703286A4AE8540031DF34164D8)
Полное имя : V:TorrentsBlack Widow (2020) WEBRip [1080p] Trailer №1.mkv
Формат : Matroska
Версия формата : Version 4 / Version 2
Размер файла : 568 Мбайт
Продолжительность : 2 м. 9 с.
Общий поток : 36,9 Мбит/сек
Дата кодирования : UTC 2019-12-04 16:22:30
Программа кодирования : mkvmerge v40.0.0 ('Old Town Road + Pony') 64-bit
Библиотека кодирования : libebml v1.3.9 + libmatroska v1.5.2
Видео
Идентификатор : 1
Формат : AVC
Формат/Информация : Advanced Video Codec
Профиль формата : [email protected]
Настройки формата : CABAC / 4 Ref Frames
Параметр CABAC формата : Да
Параметр RefFrames формата : 4 кадра
Идентификатор кодека : V_MPEG4/ISO/AVC
Продолжительность : 2 м. 9 с.
Битрейт : 34,5 Мбит/сек
Ширина : 1920 пикселей
Высота : 804 пикселя
Соотношение сторон : 2,40:1
Режим частоты кадров : Постоянный
Частота кадров : 23,976 (24000/1001) кадра/сек
Цветовое пространство : YUV
Субдискретизация насыщенности : 4:2:0
Битовая глубина : 8 бит
Тип развёртки : Прогрессивная
Бит/(Пиксели*Кадры) : 0.931
Размер потока : 531 Мбайт (93%)
Default : Да
Forced : Нет
Цветовой диапазон : Limited
Основные цвета : BT.709
Характеристики трансфера : BT.709
Коэффициенты матрицы : BT.709
Аудио #1
Идентификатор : 2
Формат : MPEG Audio
Версия формата : Version 1
Профиль формата : Layer 3
Настройки формата : Joint stereo / MS Stereo
Режим : Joint stereo
Расширение режима : MS Stereo
Идентификатор кодека : A_MPEG/L3
Идентификатор кодека/Подсказка : MP3
Продолжительность : 2 м. 9 с.
Вид битрейта : Постоянный
Битрейт : 128 Кбит/сек
Каналы : 2 канала
Частота : 48,0 КГц
Частота кадров : 41,667 кадра/сек (1152 SPF)
Метод сжатия : С потерями
Размер потока : 1,97 Мбайт (0%)
Заголовок : Dub
Язык : Russian
Default : Да
Forced : Нет
Аудио #2
Идентификатор : 3
Формат : PCM
Идентификатор кодека : A_PCM/INT/LIT
Продолжительность : 2 м. 9 с.
Вид битрейта : Постоянный
Битрейт : 2304 Кбит/сек
Каналы : 2 канала
Частота : 48,0 КГц
Частота кадров : 32,007 кадра/сек (1500 SPF)
Битовая глубина : 24 бит
Задержка видео : 21 мс.
Размер потока : 35,4 Мбайт (6%)
Язык : English
Default : Нет
Forced : Нет

Скриншоты:

Связанные раздачи

Добавлен Тема Отв. Размер S / L Ссылка
18-Апр-19 21:14 Черная вдова / Black Widow (1954) DVDRip [H.264] [VO] 0 1.69 GB 0 | 0 Скачать .torrent
Вы не можете начинать темы
Вы не можете отвечать на сообщения
Вы не можете редактировать свои сообщения
Вы не можете удалять свои сообщения
Вы не можете голосовать в опросах
Вы не можете прикреплять файлы к сообщениям
Вы не можете скачивать файлы

Текущее время: 27-Фев 17:02
Часовой пояс: UTC ± 0