Автор Сообщение
dybrik13

2660

Наличие запрета:

Пол: Мужской

Стаж: 8 месяца

Сообщений: 547

Откуда: Киев

 Top Releaser 2 (250 созданных раздач) Top Seeder 2 (3 терабайта отданного) Друзья сайта За новинки Softa

Невыдуманная история Воровского мира / True Story of the Vory- Название: Невыдуманная история Воровского мира
Оригинальное название: True Story of the Vory
Год выхода: 2015
Жанр: документальный,основанный на реальных событиях
Режиссер: Са Ния
В ролях: Николай Чернышов, Вася Бриллиант, Гоги Ишкнели, Анатолий Кириллов, Вася Корж....
Страна: Россия, Франция
Продолжительность: 02:13:51
Язык: Русский
Субтитры: Английские---Полнометражная картина без купюр повествует о так называемых Ворах «в законе», Элите евразийского криминального мира, возникшей в первые годы Советской власти на территории СССР и сохранившейся до нашей дней в Украине,России и других государствах постсоветского пространства, а также распространившей свое влияние на страны Европы и Ближнего Востока.
Перед нами уникальный проект, способный изменить представления обычных людей о Ворах в законе – Советских мафиози, легенды о которых ходят по всей Восточной Европе.
--Качество: WEBRip
Видео: XviD, 1352 Кбит/с, 720x400
Аудио: АС3, 2 ch, 192 Кбит/с
Продолжительность: 02:13:51-

MediaInfo

General
Complete name : D:\True Story of the Vory.2015.WEBRip.Enigma.avi
Format : AVI
Format/Info : Audio Video Interleave
File size : 1.45 GiB
Duration : 2 h 13 min
Overall bit rate : 1 554 kb/s
Writing application : VirtualDubMod 1.5.10.3 | www.virtualdub-fr.org || (build 2550/release)
Writing library : VirtualDubMod build 2550/release
Video
ID : 0
Format : MPEG-4 Visual
Format profile : Advanced Simple@L5
Format settings : BVOP2 / Custom Matrix
Format settings, BVOP : 2
Format settings, QPel : No
Format settings, GMC : No warppoints
Format settings, Matrix : Custom
Codec ID : XVID
Codec ID/Hint : XviD
Duration : 2 h 13 min
Bit rate : 1 352 kb/s
Width : 720 pixels
Height : 400 pixels
Display aspect ratio : 16:9
Frame rate : 25.000 FPS
Color space : YUV
Chroma subsampling : 4:2:0
Bit depth : 8 bits
Scan type : Progressive
Compression mode : Lossy
Bits/(Pixel*Frame) : 0.188
Stream size : 1.26 GiB (87%)
Writing library : XviD 73
Audio
ID : 1
Format : AC-3
Format/Info : Audio Coding 3
Codec ID : 2000
Duration : 2 h 13 min
Bit rate mode : Constant
Bit rate : 192 kb/s
Channel(s) : 2 channels
Channel positions : Front: L R
Sampling rate : 48.0 kHz
Frame rate : 31.250 FPS (1536 SPF)
Bit depth : 16 bits
Compression mode : Lossy
Stream size : 184 MiB (12%)
Alignment : Split accross interleaves
Interleave, duration : 40 ms (1.00 video frame)
Interleave, preload duration : 500 ms
Service kind : Complete Main
Вы не можете начинать темы
Вы не можете отвечать на сообщения
Вы не можете редактировать свои сообщения
Вы не можете удалять свои сообщения
Вы не можете голосовать в опросах
Вы не можете прикреплять файлы к сообщениям
Вы не можете скачивать файлы

Текущее время: 15-Дек 00:25
Часовой пояс: UTC ± 0