Автор Сообщение
BOSS

112

Наличие запрета:

Пол: Мужской

Стаж: 5 года 9 месяца

Сообщений: 3284

Откуда: ODESSA

 Top Releaser 4 (1000 созданных раздач) Top Releaser 5 (3000 созданных раздач) Активисту Активный модератор Верный пользователь ХитРусТор За внесенный вклад в развитие сайта За новинки фильмов Уважаемый

Zомбилэнд: Контрольный выстрел / Zombieland: Double Tap
Страна: США
Производство: Columbia Pictures Corporation, Pariah
Год выпуска: 2019
Жанр: ужасы, боевик, комедия
Продолжительность: 01:38:41
Режиссер: Рубен Фляйшер
Авторы сценария: Дэйв Каллахэм, Ретт Риз, Пол Верник
В ролях: Джесси Айзенберг, Вуди Харрельсон, Эмма Стоун, Эбигейл Бреслин, Зои Дойч, Эван Джогиа, Розарио Доусон, Люк Уилсон, Томас Миддлдитч, Виктория Холл, Виктор Ривера, Йен Грегг, Рэйчел Латтрелл, Джон Диксон, Ронни Мэтью, Дэвид Фляйшер, Билл Мюррей
Описание: Беспощадная и бесстрашная четвёрка охотников на зомби продолжает свое путешествие в глубь страны. На этот раз им предстоит сразиться не только с новыми видами живых мертвецов, но и вступить в схватку с другими выжившими, которые настроены совсем не дружелюбно. Кроме того, в собственных рядах охотников намечается серьёзный разлад...

Перевод: Профессиональный (дублированный)
Субтитры: нет-Качество: TS
Формат: AVI
Видео кодек: XviD
Аудио кодек: MP3
Видео: 720x272 (2.647), 23.976 fps, XviD ~1 668 kbps avg
Аудио: 44.1 kHz, MPEG Layer 3, 2 ch, ~224 kbps avg
Дата премьеры (мир): 9 октября 2019
Дата премьеры (РФ): 24 октября 2019, «WDSSPR»

Релиз от: Effx
Дополнительная информация: релиз создан исключительно в ознакомительных целях!

Media Info

General
Complete name : Zombieland.Double.Tap.2019.D.TS-Effx.avi
Format : AVI
Format/Info : Audio Video Interleave
Format profile : OpenDML
File size : 1.31 GiB
Duration : 1 h 38 min
Overall bit rate : 1 907 kb/s
Movie name : Zombieland.Double.Tap.2019.D.TS.14OOMB
Recorded date : 2019-11-10
Writing application : msl
Video
ID : 0
Format : MPEG-4 Visual
Format profile : Advanced Simple@L5
Format settings : BVOP2
Format settings, BVOP : 2
Format settings, QPel : No
Format settings, GMC : No warppoints
Format settings, Matrix : Default (H.263)
Muxing mode : Packed bitstream
Codec ID : XVID
Codec ID/Hint : XviD
Duration : 1 h 38 min
Bit rate : 1 668 kb/s
Width : 720 pixels
Height : 272 pixels
Display aspect ratio : 2.647
Frame rate : 23.976 (24000/1001) FPS
Color space : YUV
Chroma subsampling : 4:2:0
Bit depth : 8 bits
Scan type : Progressive
Compression mode : Lossy
Bits/(Pixel*Frame) : 0.355
Stream size : 1.15 GiB (87%)
Writing library : XviD 1.2.1 (UTC 2008-12-04)
Audio
ID : 1
Format : MPEG Audio
Format version : Version 1
Format profile : Layer 3
Format settings : Joint stereo / MS Stereo
Codec ID : 55
Codec ID/Hint : MP3
Duration : 1 h 38 min
Bit rate mode : Constant
Bit rate : 224 kb/s
Channel(s) : 2 channels
Sampling rate : 44.1 kHz
Compression mode : Lossy
Stream size : 158 MiB (12%)
Alignment : Split across interleaves
Interleave, duration : 26 ms (0.63 video frame)
Writing library : LAME3.100U

Скриншоты

Связанные раздачи

Добавлен Тема Отв. Размер S / L Ссылка
10-Апр-19 09:12 Добро пожаловать в Zомбилэнд / Zombieland (2009) WEB-DLRip | D | Open Matte 0 745 MB 0 | 0 Скачать .torrent
Вы не можете начинать темы
Вы не можете отвечать на сообщения
Вы не можете редактировать свои сообщения
Вы не можете удалять свои сообщения
Вы не можете голосовать в опросах
Вы не можете прикреплять файлы к сообщениям
Вы не можете скачивать файлы

Текущее время: 05-Дек 15:15
Часовой пояс: UTC ± 0