Автор Сообщение
sergej644

170

Наличие запрета:

Пол: Мужской

Стаж: 8 месяца 11 дня

Сообщений: 4148

Откуда: Atlantic Ocean

 Top Releaser 5 (3000 созданных раздач) Top Seeder 3 (5 терабайт отданного) Top Seeder 4 (10 терабайт отданного) верныйсид За внесенный вклад в развитие сайта За новинки музыки Красивое оформление Меценат Уважаемый

- A New Revenge (feat. Tim 'Ripper' Owens) - Enemies & Lovers--
Год издания: 2019
Страна: USA
Жанр: Hard & Heavy
Продолжительность: 00:39:21-Лейбл издания: Golden Robot Rec., King Rec.
Страна-выпуска диска: Japan
Номер по каталогу: KICP 1933-Формат: FLAC
Битрейт аудио: Lossless
Тип рипа: tracks +.cue
Наличие сканов в содержимом раздачи: да
-

Трэклист


01. The Distance Between (2:58)
02. The Way (3:52)
03. Never Let You Go (2:59)
04. Glorious (3:26)
05. The Eyes (3:17)
06. Fallen (3:53)
07. Only the Pretty Ones (5:26)
08. Enemies & Lovers (3:36)
09. Here's to Us (3:23)
10. Scars (3:34)
11. Killing You (bonus) (2:57)
-

Лог создания рипа

Exact Audio Copy V1.3 from 2. September 2016
EAC extraction logfile from 13. April 2019, 15:51
A New Revenge / Enemies & Lovers
Used drive  : ASUS    DRW-24D5MT   Adapter: 1  ID: 0
Read mode               : Secure
Utilize accurate stream : Yes
Defeat audio cache      : Yes
Make use of C2 pointers : No
Read offset correction                      : 6
Overread into Lead-In and Lead-Out          : No
Fill up missing offset samples with silence : Yes
Delete leading and trailing silent blocks   : No
Null samples used in CRC calculations       : Yes
Used interface                              : Native Win32 interface for Win NT & 2000
Gap handling                                : Appended to previous track
Used output format              : User Defined Encoder
Selected bitrate                : 128 kBit/s
Quality                         : High
Add ID3 tag                     : No
Command line compressor         : C:\Program Files (x86)\Exact Audio Copy\Flac\flac.exe
Additional command line options : -V -8 -T "Genre=%genre%" -T "Artist=%artist%" -T "Title=%title%" -T "Album=%albumtitle%" -T "Date=%year%" -T "Tracknumber=%tracknr%" -T "Comment=%comment%" %source%
TOC of the extracted CD
     Track |   Start  |  Length  | Start sector | End sector
    ---------------------------------------------------------
        1  |  0:00.00 |  2:58.22 |         0    |    13371
        2  |  2:58.22 |  3:52.06 |     13372    |    30777
        3  |  6:50.28 |  2:58.38 |     30778    |    44165
        4  |  9:48.66 |  3:25.50 |     44166    |    59590
        5  | 13:14.41 |  3:16.74 |     59591    |    74364
        6  | 16:31.40 |  3:52.69 |     74365    |    91833
        7  | 20:24.34 |  5:25.62 |     91834    |   116270
        8  | 25:50.21 |  3:36.15 |    116271    |   132485
        9  | 29:26.36 |  3:22.64 |    132486    |   147699
       10  | 32:49.25 |  3:34.19 |    147700    |   163768
       11  | 36:23.44 |  2:57.10 |    163769    |   177053
Track  1
     Filename C:\Users\Desktop\Рипы\Новая папка (2)\01. The Distance Between.wav
     Pre-gap length  0:00:02.00
     Peak level 97.6 %
     Extraction speed 4.0 X
     Track quality 99.9 %
     Test CRC D746BEB1
     Copy CRC D746BEB1
     Track not present in AccurateRip database
     Copy OK
Track  2
     Filename C:\Users\Desktop\Рипы\Новая папка (2)\02. The Way.wav
     Peak level 97.6 %
     Extraction speed 4.6 X
     Track quality 99.9 %
     Test CRC 05656B18
     Copy CRC 05656B18
     Track not present in AccurateRip database
     Copy OK
Track  3
     Filename C:\Users\Desktop\Рипы\Новая папка (2)\03. Never Let You Go.wav
     Peak level 97.6 %
     Extraction speed 5.3 X
     Track quality 100.0 %
     Test CRC 4DAFB9C9
     Copy CRC 4DAFB9C9
     Track not present in AccurateRip database
     Copy OK
Track  4
     Filename C:\Users\Desktop\Рипы\Новая папка (2)\04. Glorious.wav
     Peak level 97.6 %
     Extraction speed 5.8 X
     Track quality 100.0 %
     Test CRC F399E0D7
     Copy CRC F399E0D7
     Track not present in AccurateRip database
     Copy OK
Track  5
     Filename C:\Users\Desktop\Рипы\Новая папка (2)\05. The Eyes.wav
     Peak level 97.6 %
     Extraction speed 6.0 X
     Track quality 100.0 %
     Test CRC E8758BD2
     Copy CRC E8758BD2
     Track not present in AccurateRip database
     Copy OK
Track  6
     Filename C:\Users\Desktop\Рипы\Новая папка (2)\06. Fallen.wav
     Peak level 97.6 %
     Extraction speed 6.4 X
     Track quality 100.0 %
     Test CRC 120F94CC
     Copy CRC 120F94CC
     Track not present in AccurateRip database
     Copy OK
Track  7
     Filename C:\Users\Desktop\Рипы\Новая папка (2)\07. Only the Pretty Ones.wav
     Peak level 97.6 %
     Extraction speed 7.1 X
     Track quality 100.0 %
     Test CRC AD659309
     Copy CRC AD659309
     Track not present in AccurateRip database
     Copy OK
Track  8
     Filename C:\Users\Desktop\Рипы\Новая папка (2)\08. Enemies & Lovers.wav
     Peak level 97.6 %
     Extraction speed 7.1 X
     Track quality 100.0 %
     Test CRC 150A4A09
     Copy CRC 150A4A09
     Track not present in AccurateRip database
     Copy OK
Track  9
     Filename C:\Users\Desktop\Рипы\Новая папка (2)\09. Here's to Us.wav
     Peak level 97.6 %
     Extraction speed 6.3 X
     Track quality 99.9 %
     Test CRC BAB79858
     Copy CRC BAB79858
     Track not present in AccurateRip database
     Copy OK
Track 10
     Filename C:\Users\Desktop\Рипы\Новая папка (2)\10. Scars.wav
     Peak level 97.6 %
     Extraction speed 7.5 X
     Track quality 100.0 %
     Test CRC 61CCE197
     Copy CRC 61CCE197
     Track not present in AccurateRip database
     Copy OK
Track 11
     Filename C:\Users\Desktop\Рипы\Новая папка (2)\11. Killing You (bonus).wav
     Peak level 97.6 %
     Extraction speed 7.5 X
     Track quality 100.0 %
     Test CRC 562A753E
     Copy CRC 562A753E
     Track not present in AccurateRip database
     Copy OK
None of the tracks are present in the AccurateRip database
No errors occurred
End of status report

Индексная карта (non-compilant .cue)

REM GENRE Hard'n'Heavy
REM DATE 2019
REM DISCID 9B09380B
REM COMMENT "ExactAudioCopy v1.3"
PERFORMER "A New Revenge"
TITLE "Enemies & Lovers"
REM COMPOSER ""
FILE "01. The Distance Between.wav" WAVE
  TRACK 01 AUDIO
    TITLE "The Distance Between"
    PERFORMER "A New Revenge"
    REM COMPOSER ""
    INDEX 01 00:00:00
FILE "02. The Way.wav" WAVE
  TRACK 02 AUDIO
    TITLE "The Way"
    PERFORMER "A New Revenge"
    REM COMPOSER ""
    INDEX 01 00:00:00
FILE "03. Never Let You Go.wav" WAVE
  TRACK 03 AUDIO
    TITLE "Never Let You Go"
    PERFORMER "A New Revenge"
    REM COMPOSER ""
    INDEX 01 00:00:00
FILE "04. Glorious.wav" WAVE
  TRACK 04 AUDIO
    TITLE "Glorious"
    PERFORMER "A New Revenge"
    REM COMPOSER ""
    INDEX 01 00:00:00
FILE "05. The Eyes.wav" WAVE
  TRACK 05 AUDIO
    TITLE "The Eyes"
    PERFORMER "A New Revenge"
    REM COMPOSER ""
    INDEX 01 00:00:00
FILE "06. Fallen.wav" WAVE
  TRACK 06 AUDIO
    TITLE "Fallen"
    PERFORMER "A New Revenge"
    REM COMPOSER ""
    INDEX 01 00:00:00
FILE "07. Only the Pretty Ones.wav" WAVE
  TRACK 07 AUDIO
    TITLE "Only the Pretty Ones"
    PERFORMER "A New Revenge"
    REM COMPOSER ""
    INDEX 01 00:00:00
FILE "08. Enemies & Lovers.wav" WAVE
  TRACK 08 AUDIO
    TITLE "Enemies & Lovers"
    PERFORMER "A New Revenge"
    REM COMPOSER ""
    INDEX 01 00:00:00
FILE "09. Here's to Us.wav" WAVE
  TRACK 09 AUDIO
    TITLE "Here's to Us"
    PERFORMER "A New Revenge"
    REM COMPOSER ""
    INDEX 01 00:00:00
FILE "10. Scars.wav" WAVE
  TRACK 10 AUDIO
    TITLE "Scars"
    PERFORMER "A New Revenge"
    REM COMPOSER ""
    INDEX 01 00:00:00
FILE "11. Killing You (bonus).wav" WAVE
  TRACK 11 AUDIO
    TITLE "Killing You (bonus)"
    PERFORMER "A New Revenge"
    REM COMPOSER ""
    INDEX 01 00:00:00
-

для ознакомления:

https://www.youtube.com/watch?v=JLP3US8M3DA
--

Релиз подготовлен R.G. Music

Вы не можете начинать темы
Вы не можете отвечать на сообщения
Вы не можете редактировать свои сообщения
Вы не можете удалять свои сообщения
Вы не можете голосовать в опросах
Вы не можете прикреплять файлы к сообщениям
Вы не можете скачивать файлы

Текущее время: 14-Дек 22:27
Часовой пояс: UTC ± 0