Автор Сообщение
admin

2895

Наличие запрета:

Пол: Мужской

Стаж: 1 месяц 4 дня

Сообщений: 27

 admin Уважаемый

В погоне за равноденствием / Chasing the Equinox (2019) HDTV [H.264/1080i-LQ] - Производство: Великобритания, National Geographic
Жанр: Документальный, история, познавательный
Режиссер: Кенни Скотт
Описание:
Древние скрывали секреты своего невероятного знания астрономии в своих храмах и дворцах, построенных так, что они встречали солнце одновременно, в один и тот же день по всей планете. Это своеобразная архитектурная магия в масштабах всей земли доказывает то значение, которое придавали солнцу люди на протяжении тысячелетий и на всех континентах.
Релиз от: Zakol
Продолжительность: 00:43:56
Качество видео: HDTV
Перевод: Одноголосый закадровый, профессиональный
Субтитры: отсутствуют
Видео: AVC/H.264, 1920x1080, ~7042 Kbps
Аудио#1: MP2, 2 ch, 192 Kbps | Русский
Аудио#2: MP2, 2 ch, 192 Kbps | Английский

Mediainfo:

Общее
Идентификатор : 1 (0x1)
Полное имя : F:\КИНО\В погоне за равноденствием 1080 (2019).ts
Формат : MPEG-TS
Размер файла : 2,40 Гбайт
Продолжительность : 43 м. 56 с.
Режим общего битрейта : Переменный
Общий поток : 7816 Кбит/сек
Видео
Идентификатор : 1146 (0x47A)
Идентификатор меню : 134 (0x86)
Формат : AVC
Формат/Информация : Advanced Video Codec
Профиль формата : Main@L4
Настройки формата : CABAC / 4 Ref Frames
Параметр CABAC формата : Да
Параметр RefFrames формата : 4 кадра
Идентификатор кодека : 27
Продолжительность : 43 м. 56 с.
Битрейт : 7042 Кбит/сек
Ширина : 1920 пикселей
Высота : 1080 пикселей
Соотношение сторон : 16:9
Частота кадров : 25,000 кадров/сек
Стандарт вещания : Component
Цветовое пространство : YUV
Субдискретизация насыщенности : 4:2:0
Битовая глубина : 8 бит
Тип развёртки : Чересстрочная
Метод сохранения типа развёртки : Раздельные поля
Порядок развёртки : Верхнее поле первое
Бит/(Пиксели*Кадры) : 0.136
Размер потока : 2,16 Гбайт (90%)
Цветовой диапазон : Limited
Основные цвета : BT.709
Характеристики трансфера : BT.709
Коэффициенты матрицы : BT.709
Аудио #1
Идентификатор : 1147 (0x47B)
Идентификатор меню : 134 (0x86)
Формат : MPEG Audio
Версия формата : Version 1
Профиль формата : Layer 2
Идентификатор кодека : 3
Продолжительность : 43 м. 56 с.
Вид битрейта : Постоянный
Битрейт : 192 Кбит/сек
Каналы : 2 канала
Частота : 48,0 КГц
Частота кадров : 41,667 кадра/сек (1152 SPF)
Метод сжатия : С потерями
Размер потока : 60,3 Мбайт (2%)
Язык : Russian
Аудио #2
Идентификатор : 1148 (0x47C)
Идентификатор меню : 134 (0x86)
Формат : MPEG Audio
Версия формата : Version 1
Профиль формата : Layer 2
Идентификатор кодека : 3
Продолжительность : 43 м. 56 с.
Вид битрейта : Постоянный
Битрейт : 192 Кбит/сек
Каналы : 2 канала
Частота : 48,0 КГц
Частота кадров : 41,667 кадра/сек (1152 SPF)
Метод сжатия : С потерями
Размер потока : 60,3 Мбайт (2%)
Язык : English
Скриншоты:

Дополнительные скриншоты:

Время раздачи: с 18:00 до 23:00 (до появления первых 3-5 скачавших)

Связанные раздачи

Добавлен Тема Отв. Размер S / L Ссылка
27-Сен-19 09:58 За пределами закона / В погоне за тенью / Beyond The Law (1993) BDRip 720pk.e.n & | Directors Cut 0 5.76 GB 0 | 0 Скачать .torrent
Вы не можете начинать темы
Вы не можете отвечать на сообщения
Вы не можете редактировать свои сообщения
Вы не можете удалять свои сообщения
Вы не можете голосовать в опросах
Вы не можете прикреплять файлы к сообщениям
Вы не можете скачивать файлы

Текущее время: 06-Дек 21:20
Часовой пояс: UTC ± 0