Автор Сообщение
BOSS

112

Наличие запрета:

Пол: Мужской

Стаж: 5 года 9 месяца

Сообщений: 3391

Откуда: ODESSA

 Top Releaser 4 (1000 созданных раздач) Top Releaser 5 (3000 созданных раздач) Активисту Активный модератор Верный пользователь ХитРусТор За внесенный вклад в развитие сайта За новинки фильмов Уважаемый

Информация о фильме
Название: Бобот и энергия Вселенной
Год выпуска: 2018
Жанр: Фантастика, приключения, семейный
Режиссёр: Максим Ксенда
В ролях: Тарас Шевченко, Виктор Григорьев, Владимир Ращук, Арсен Шавлюк, Иванна Бородай, Игор Мирошниченко
Описание:
Из-за мощного взрыва на Солнце на всей Земле может исчезнуть электроэнергия. Электромагнитное поле Земли — щит, построенный людьми, — формируется специальными энергетическими Станциями, одна из которых была отключена Мусорщиками — неизвестными существами. 12-летний Вадик попадает в круговорот событий, и на его плечи ложится миссия спасения мира. Ему на помощь приходит Бобот — трансформаторная будка, носитель Энергии Вселенной. Вместе они пытаются предотвратить катастрофу.

Страна: Украина
Студия: Mental Drive Studio
Продолжительность: 01:35:59
Перевод: Не требуется
Файл
Формат: MKV
Качество: WEB-DL 1080p
Видео: 1916x800 (2,40:1), 25 fps, MPEG-4 AVC ~ 4541 Кbps avg, 0.118 bit/pixel
Аудио: AC3, 48 kHz, 6 ch, ~384.00 kbps avg | русский | iTunes
Субтитры: Отсутствуют

Инфо-файл

Общее
Уникальный идентификатор : 205559519746722592302490251148580313526 (0x9AA552CD2FE82EA143ED428EA5D359B6)
Полное имя : G:BOBOT (2018) WEB-DL 1080p.mkv
Формат : Matroska
Версия формата : Version 4
Размер файла : 3,30 Гбайт
Продолжительность : 1 ч. 35 м.
Общий поток : 4926 Кбит/сек
Название фильма : BOBOT (2018) WEB-DL 1080p
Дата кодирования : UTC 2019-12-02 03:47:20
Программа кодирования : mkvmerge v38.0.0 ('The Silent Type') 64-bit
Библиотека кодирования : libebml v1.3.9 + libmatroska v1.5.2
Обложка : Yes
Attachments : cover.jpg
Видео
Идентификатор : 1
Формат : AVC
Формат/Информация : Advanced Video Codec
Профиль формата : High@L4
Настройки формата : CABAC / 5 Ref Frames
Параметр CABAC формата : Да
Параметр RefFrames формата : 5 кадров
Идентификатор кодека : V_MPEG4/ISO/AVC
Продолжительность : 1 ч. 35 м.
Битрейт : 4541 Кбит/сек
Ширина : 1916 пикселей
Высота : 800 пикселей
Соотношение сторон : 2,40:1
Режим частоты кадров : Постоянный
Частота кадров : 25,000 кадров/сек
Цветовое пространство : YUV
Субдискретизация насыщенности : 4:2:0
Битовая глубина : 8 бит
Тип развёртки : Прогрессивная
Бит/(Пиксели*Кадры) : 0.118
Размер потока : 3,04 Гбайт (92%)
Заголовок : #stillet
Язык : English
Default : Да
Forced : Нет
Цветовой диапазон : Limited
Основные цвета : BT.709
Характеристики трансфера : BT.709
Коэффициенты матрицы : BT.709
Аудио
Идентификатор : 2
Формат : AC-3
Формат/Информация : Audio Coding 3
Коммерческое название : Dolby Digital
Идентификатор кодека : A_AC3
Продолжительность : 1 ч. 35 м.
Вид битрейта : Постоянный
Битрейт : 384 Кбит/сек
Каналы : 6 каналов
ChannelLayout : L R C LFE Ls Rs
Частота : 48,0 КГц
Частота кадров : 31,250 кадров/сек (1536 SPF)
Метод сжатия : С потерями
Задержка видео : -40 мс.
Размер потока : 264 Мбайт (8%)
Заголовок : iTunes | BOBOT (2018) WEB-DL 1080p
Язык : Russian
Default : Да
Forced : Да
Меню
00:00:00.000 : en:1
00:25:54.000 : en:2
00:51:55.000 : en:3
01:10:33.000 : en:4
01:30:37.000 : en:5

Скриншоты

Связанные раздачи

Добавлен Тема Отв. Размер S / L Ссылка
02-Дек-19 18:36 Бобот и энергия Вселенной (2018) WEB-DLRip | iTunes 0 1.46 GB 0 | 0 Скачать .torrent
Вы не можете начинать темы
Вы не можете отвечать на сообщения
Вы не можете редактировать свои сообщения
Вы не можете удалять свои сообщения
Вы не можете голосовать в опросах
Вы не можете прикреплять файлы к сообщениям
Вы не можете скачивать файлы

Текущее время: 12-Дек 18:16
Часовой пояс: UTC ± 0