Автор Сообщение
BOSS

112

Наличие запрета:

Пол: Мужской

Стаж: 5 года 9 месяца

Сообщений: 3348

Откуда: ODESSA

 Top Releaser 4 (1000 созданных раздач) Top Releaser 5 (3000 созданных раздач) Активисту Активный модератор Верный пользователь ХитРусТор За внесенный вклад в развитие сайта За новинки фильмов Уважаемый

Название: Ревность
Оригинальное название: Heartburn
Год выхода: 1986
Страна: США
Студия: Paramount Pictures
Продолжительность: 01:49:23
Жанр: драма, мелодрама, комедия
Режиссер: Майк Николс
В ролях: Мэрил Стрип, Джек Николсон, Джефф Дэниелс, Морин Стейплтон, Стокард Ченнинг, Ричард Мейсер, Кэтрин О’Хара, Стивен Хилл, Милош Форман, Мэми Гаммер, ...
Перевод:
- Профессиональный (многоголосый, закадровый) ?
- Профессиональный (многоголосый, закадровый) Paramount channel
- Авторский (одноголосый, закадровый) Михалёв Алексей Михайлович
- Субтитры
О фильме: Ее зовут Рэйчел. Она пишет кулинарные книги, которые издаются большими тиражами, и втайне мечтает о собственном ребенке. Его зовут Марк. Он — преуспевающий журналист из Вашингтона и неисправимый ловелас. Они познакомились тогда, когда им уже успели «набить оскомину» прошлые неудачные романы и супружества. Они встретились и решили, что в этот раз все будет по-серьезному.
Марк и Рэйчел играют свадьбу, обустраивают новое жилище и у них рождается первенец. Спустя какое-то время Рэйчел вновь беременеет, и перед самыми родами она узнаёт, что всё это время у супруга был роман с другой женщиной. Она уходит от него, однако вскоре у него появится ещё один шанс вернуть семью…

Кодек: x264
Качество: WEB-DL 1080p
Видео: 1920x1080, 14300 kbps, 23,976 fps
Аудио #1: AC-3, 2 ch, 160 kbps (Rus) - MVO
Аудио #2: AC-3, 2 ch, 192 kbps (Rus) - MVO Paramount channel
Аудио #3: AC-3, 2 ch, 160 kbps (Eng) - AVO Михалёв Алексей Михайлович
Аудио #4: AC-3, 6 ch, 640 kbps (Eng)
Субтитры: английские

MediaInfo

Общее
Уникальный идентификатор : 187746294021382093906563423164342096784 (0x8D3E9EF741EFAD8F90066D810EDE5390)
Полное имя : Ревность (Heartburn) 1986 WEBRip 1080p.mkv
Формат : Matroska
Версия формата : Version 2
Размер файла : 12,0 Гбайт
Продолжительность : 1 ч. 49 м.
Режим общего битрейта : Переменный
Общий поток : 15,7 Мбит/сек
Дата кодирования : UTC 2019-11-27 15:58:22
Программа кодирования : mkvmerge v4.0.0 ('The Stars were mine') сборка от Jun 6 2010 16:18:42
Библиотека кодирования : libebml v1.0.0 + libmatroska v1.0.0
Видео
Идентификатор : 1
Формат : AVC
Формат/Информация : Advanced Video Codec
Профиль формата : High@L4
Параметр CABAC формата : Да
Параметр ReFrames формата : 4 кадра
Идентификатор кодека : V_MPEG4/ISO/AVC
Продолжительность : 1 ч. 49 м.
Вид битрейта : Переменный
Битрейт : 14,3 Мбит/сек
Максимальный битрейт : 15,0 Мбит/сек
Ширина : 1920 пикселей
Высота : 1080 пикселей
Соотношение сторон : 16:9
Режим частоты кадров : Постоянный
Частота кадров : 23,976 (24000/1001) кадра/сек
Цветовое пространство : YUV
Субдискретизация насыщенности : 4:2:0
Битовая глубина : 8 бит
Тип развёртки : Прогрессивная
Бит/(Пиксели*Кадры) : 0.287
Размер потока : 10,9 Гбайт (91%)
Библиотека кодирования : x264 core 148 r2623 d5b2374
Настройки программы : cabac=1 / ref=4 / deblock=1:-1:-1 / analyse=0x3:0x133 / me=umh / subme=9 / psy=1 / psy_rd=1.00:0.15 / mixed_ref=1 / me_range=24 / chroma_me=1 / trellis=2 / 8x8dct=1 / cqm=0 / deadzone=21,11 / fast_pskip=1 / chroma_qp_offset=-3 / threads=34 / lookahead_threads=5 / sliced_threads=0 / nr=150 / decimate=1 / interlaced=0 / bluray_compat=0 / constrained_intra=0 / bframes=8 / b_pyramid=2 / b_adapt=2 / b_bias=0 / direct=3 / weightb=1 / open_gop=0 / weightp=2 / keyint=120 / keyint_min=61 / scenecut=0 / intra_refresh=0 / rc_lookahead=120 / rc=crf / mbtree=1 / crf=18.0 / qcomp=0.60 / qpmin=0 / qpmax=69 / qpstep=4 / vbv_maxrate=15000 / vbv_bufsize=31250 / crf_max=0.0 / nal_hrd=vbr / filler=0 / ip_ratio=1.40 / aq=3:1.00
Язык : English
Default : Нет
Forced : Нет
Цветовой диапазон : Limited
Основные цвета : BT.709
Характеристики трансфера : BT.709
Коэффициенты матрицы : BT.709
Аудио #1
Идентификатор : 2
Формат : AC-3
Формат/Информация : Audio Coding 3
Расширение режима : CM (complete main)
Параметр Endianness формата : Big
Идентификатор кодека : A_AC3
Продолжительность : 1 ч. 49 м.
Вид битрейта : Постоянный
Битрейт : 160 Кбит/сек
Каналы : 2 канала
Расположение каналов : Front: L R
Частота : 48,0 КГц
Частота кадров : 31,250 кадров/сек (1536 spf)
Метод сжатия : С потерями
Размер потока : 125 Мбайт (1%)
Заголовок : MVO
Язык : Russian
Default : Нет
Forced : Нет
Аудио #2
Идентификатор : 3
Формат : AC-3
Формат/Информация : Audio Coding 3
Расширение режима : CM (complete main)
Параметр Endianness формата : Big
Идентификатор кодека : A_AC3
Продолжительность : 1 ч. 49 м.
Вид битрейта : Постоянный
Битрейт : 192 Кбит/сек
Каналы : 2 канала
Расположение каналов : Front: L R
Частота : 48,0 КГц
Частота кадров : 31,250 кадров/сек (1536 spf)
Метод сжатия : С потерями
Размер потока : 150 Мбайт (1%)
Заголовок : MVO Paramount channel
Язык : Russian
Default : Нет
Forced : Нет
Аудио #3
Идентификатор : 4
Формат : AC-3
Формат/Информация : Audio Coding 3
Расширение режима : CM (complete main)
Параметр Endianness формата : Big
Идентификатор кодека : A_AC3
Продолжительность : 1 ч. 49 м.
Вид битрейта : Постоянный
Битрейт : 160 Кбит/сек
Каналы : 2 канала
Расположение каналов : Front: L R
Частота : 48,0 КГц
Частота кадров : 31,250 кадров/сек (1536 spf)
Метод сжатия : С потерями
Размер потока : 125 Мбайт (1%)
Заголовок : AVO Михалёв Алексей Михайлович
Язык : Russian
Default : Нет
Forced : Нет
Аудио #4
Идентификатор : 5
Формат : AC-3
Формат/Информация : Audio Coding 3
Расширение режима : CM (complete main)
Параметр Endianness формата : Big
Идентификатор кодека : A_AC3
Продолжительность : 1 ч. 49 м.
Вид битрейта : Постоянный
Битрейт : 640 Кбит/сек
Каналы : 6 каналов
Расположение каналов : Front: L C R, Side: L R, LFE
Частота : 48,0 КГц
Частота кадров : 31,250 кадров/сек (1536 spf)
Метод сжатия : С потерями
Размер потока : 501 Мбайт (4%)
Язык : English
Default : Нет
Forced : Нет
Текст
Идентификатор : 6
Формат : UTF-8
Идентификатор кодека : S_TEXT/UTF8
Идентификатор кодека/Информация : UTF-8 Plain Text
Язык : English
Default : Нет
Forced : Нет
Меню
00:00:00.000 : en:Famous For Being Single
00:03:03.000 : en:First date
00:08:11.000 : en:Rachel's Reservations
00:13:43.000 : en:Wedding Vows
00:16:58.000 : en:Contractor Troubles
00:22:45.000 : en:Baby Songs
00:30:03.000 : en:Annie's Birth
00:37:07.000 : en:Life Goes On
00:41:31.000 : en:Missing Socks
00:44:39.000 : en:Washington Gossip
00:47:34.000 : en:Rachel Comforts Mark
00:54:01.000 : en:Back In New York
01:02:45.000 : en:Pregnant,Penniless,And Alone
01:08:47.000 : en:Group Therapy Robbery
01:12:58.000 : en:Reconciliation
01:18:11.000 : en:Pretending To Be Happy
01:23:28.000 : en:Lies About Thelma
01:30:20.000 : en:Another Baby
01:35:57.000 : en:At The Jeweler
01:38:34.000 : en:Key Lime Pie

Вы не можете начинать темы
Вы не можете отвечать на сообщения
Вы не можете редактировать свои сообщения
Вы не можете удалять свои сообщения
Вы не можете голосовать в опросах
Вы не можете прикреплять файлы к сообщениям
Вы не можете скачивать файлы

Текущее время: 08-Дек 09:59
Часовой пояс: UTC ± 0