Автор Сообщение
BOSS

112

Наличие запрета:

Пол: Мужской

Стаж: 5 года 9 месяца

Сообщений: 3391

Откуда: ODESSA

 Top Releaser 4 (1000 созданных раздач) Top Releaser 5 (3000 созданных раздач) Активисту Активный модератор Верный пользователь ХитРусТор За внесенный вклад в развитие сайта За новинки фильмов Уважаемый

Информация о фильме
Название: Брук. Вызов
Оригинальное название: Bruc. La llegenda
Год выхода: 2010
Жанр: приключения, история
Режиссер: Даниэль Бенмаур
В ролях: Хуан Хосе Бальеста, Венсан Перес, Астрид Берже-Фрисби, Санти Мильян, Николас Жиро, Мусса Мааскри, Жером Ле Баннер, Жюстин Бланкер, Франсеск Альбиоль, Блаи Льопис
О фильме:
6 июня 1808 года отряд наполеоновской армии потерпел сокрушительное поражение благодаря смекалке юного барабанщика, использовавшего эхо в горах таким образом, чтобы многократно усилить звук своего барабана и заставить врагов в панике обратиться в бегство. Юноша по прозвищу Брук становится героем в родном городке и врагом номер один французской армии. Отныне любого, кто пытается помочь юноше, ждет верная смерть. По личному приказу Наполеона гвардейцы капитана Алена Мараваля ночью являются в дом Брука, убивают его родителей, брата и уводят невесту. У юноши не остается другого выбора — он сам начинает искать встречи с врагами, чтобы отомстить за близких.

Страна: Испания
Студия: Instituto de la Cinematografía y de las Artes Audiovisuales (ICAA)
Продолжительность: 01:29:35
Перевод: Любительский (двуголосый закадровый)
Файл
Кодек: h.264
Качество: BDRip 1080p
Видео: 1920x800, ~10,5 Mbps, 23.976 fps,
Звук #1: AC3, 2 ch, 192 Kbps (Русский)
Звук #2: DTS, 6 ch, 1510 kbps (Испанский)
Субтитры: Английские

Скриншоты

MI

Формат : Matroska
Версия формата : Version 2
Размер файла : 7,62 Гбайт
Продолжительность : 1 ч. 29 м.
Общий поток : 12,2 Мбит/сек
Дата кодирования : UTC 2012-08-03 13:56:58
Программа кодирования : mkvmerge v5.7.0 ('The Whirlwind') built on Jul 8 2012 20:08:51
Библиотека кодирования : libebml v1.2.3 + libmatroska v1.3.0
Видео
Идентификатор : 1
Формат : AVC
Формат/Информация : Advanced Video Codec
Профиль формата : High@L4.1
Параметр CABAC формата : Да
Параметр ReFrames формата : 4 кадра
Идентификатор кодека : V_MPEG4/ISO/AVC
Продолжительность : 1 ч. 29 м.
Битрейт : 10,5 Мбит/сек
Ширина : 1920 пикселей
Высота : 800 пикселей
Соотношение сторон : 2,40:1
Частота кадров : 24,000 кадра/сек
Цветовое пространство : YUV
Субдискретизация насыщенности : 4:2:0
Битовая глубина : 8 бит
Тип развёртки : Прогрессивная
Бит/(Пиксели*Кадры) : 0.284
Размер потока : 6,40 Гбайт (84%)
Библиотека кодирования : x264 core 125 r2200 999b753
Настройки программы : cabac=1 / ref=4 / deblock=1:-2:-2 / analyse=0x3:0x113 / me=umh / subme=10 / psy=1 / psy_rd=1.20:0.20 / mixed_ref=1 / me_range=32 / chroma_me=1 / trellis=2 / 8x8dct=1 / cqm=0 / deadzone=21,11 / fast_pskip=0 / chroma_qp_offset=-3 / threads=9 / lookahead_threads=1 / sliced_threads=0 / nr=0 / decimate=0 / interlaced=0 / bluray_compat=0 / constrained_intra=0 / bframes=5 / b_pyramid=2 / b_adapt=2 / b_bias=0 / direct=3 / weightb=1 / open_gop=0 / weightp=2 / keyint=240 / keyint_min=1 / scenecut=40 / intra_refresh=0 / rc_lookahead=72 / rc=2pass / mbtree=1 / bitrate=10476 / ratetol=1.0 / qcomp=0.60 / qpmin=10 / qpmax=51 / qpstep=4 / cplxblur=20.0 / qblur=0.5 / vbv_maxrate=38000 / vbv_bufsize=38000 / nal_hrd=none / ip_ratio=1.40 / aq=1:1.00
Язык : Spanish
Default : Да
Forced : Нет
Аудио #1
Идентификатор : 2
Формат : AC-3
Формат/Информация : Audio Coding 3
Расширение режима : CM (complete main)
Идентификатор кодека : A_AC3
Продолжительность : 1 ч. 29 м.
Вид битрейта : Постоянный
Битрейт : 192 Кбит/сек
Каналы : 2 канала
Расположение каналов : Front: L R
Частота : 48,0 КГц
Битовая глубина : 16 бит
Метод сжатия : С потерями
Размер потока : 123 Мбайт (2%)
Заголовок : DVO
Язык : Russian
Default : Да
Forced : Нет
Аудио #2
Идентификатор : 3
Формат : DTS
Формат/Информация : Digital Theater Systems
Идентификатор кодека : A_DTS
Продолжительность : 1 ч. 29 м.
Вид битрейта : Постоянный
Битрейт : 1510 Кбит/сек
Каналы : 6 каналов
Расположение каналов : Front: L C R, Side: L R, LFE
Частота : 48,0 КГц
Битовая глубина : 16 бит
Метод сжатия : С потерями
Размер потока : 967 Мбайт (12%)
Язык : Spanish
Default : Нет
Forced : Нет
Текст
Идентификатор : 4
Формат : UTF-8
Идентификатор кодека : S_TEXT/UTF8
Идентификатор кодека/Информация : UTF-8 Plain Text
Язык : English
Default : Нет
Forced : Нет
Меню
00:00:00.000 : en:00:00:00.000
00:06:36.917 : en:00:06:36.917
00:14:02.208 : en:00:14:02.208
00:23:13.750 : en:00:23:13.750
00:30:53.917 : en:00:30:53.917
00:37:10.792 : en:00:37:10.792
00:45:29.292 : en:00:45:29.292
00:52:33.625 : en:00:52:33.625
01:00:15.500 : en:01:00:15.500
01:06:53.667 : en:01:06:53.667
01:13:11.000 : en:01:13:11.000
01:21:59.083 : en:01:21:59.083
Вы не можете начинать темы
Вы не можете отвечать на сообщения
Вы не можете редактировать свои сообщения
Вы не можете удалять свои сообщения
Вы не можете голосовать в опросах
Вы не можете прикреплять файлы к сообщениям
Вы не можете скачивать файлы

Текущее время: 12-Дек 15:44
Часовой пояс: UTC ± 0