Автор Сообщение
BOSS

112

Наличие запрета:

Пол: Мужской

Стаж: 5 года 9 месяца

Сообщений: 3316

Откуда: ODESSA

 Top Releaser 4 (1000 созданных раздач) Top Releaser 5 (3000 созданных раздач) Активисту Активный модератор Верный пользователь ХитРусТор За внесенный вклад в развитие сайта За новинки фильмов Уважаемый

Страна: СССР
Производство: Ленфильм
Жанр: музыкальный фильм, экранизация
Год выпуска: 1960
Продолжительность: 01:41:18
Перевод: Не требуется
Cубтитры: нет
Оригинальная аудиодорожка: русский
Режиссер: Роман Тихомиров
В ролях:
Олег Стриженов, Ольга Красина, Елена Полевицкая, Валентин Кулик, Вадим Медведев, Ирина Губанова, Александр Густавсон, Иван Дарьялов, Владимир Косарев, Андрей Олеванов, Дмитрий Радлов, Юрий Соловов...
Об актёрах подробней
Описание:
По одноименной повести А.С.Пушкина и опере П.И.Чайковского.
Премьера оперы "Пиковая дама" состоялась в Мариинском театре 7 (19) декабря 1890 года и имела огромный успех. При этом опера была создана Чайковским за предельно короткий срок - в сорок четыре дня. И, по словам композитора, писалась "с самозабвением и наслаждением".- [img]http://Хит Рус Торр.org/images/sample_video.png[/img]-Источник: DVD9 R5
Качество видео: DVDRip-AVC
Формат видео: MKV
Видео: 716->788x556 (1,421:1), 25,000 кадров/сек, H264 ~ 1611 kbps avg, 0.162 bit/pixel
Аудио: 48 kHz, Dolby Digital AC3 5.1, 448 kbps

MediaInfo

Общее
Полное имя : Pikovaya.dama.1960.DVDRip-AVC_[Хит Рус Торр]_by_AVP_Studio.mkv
Формат : Matroska
Версия формата : Version 2
Размер файла : 1,46 Гбайт
Продолжительность : 1 ч. 41 м.
Общий поток : 2061 Кбит/сек
Дата кодирования : UTC 2018-03-07 14:41:14
Программа кодирования : mkvmerge v6.1.0 ('Old Devil') built on Mar 4 2013 09:10:42
Библиотека кодирования : libebml v1.3.0 + libmatroska v1.4.0
Видео
Идентификатор : 1
Формат : AVC
Формат/Информация : Advanced Video Codec
Профиль формата : High@L4.1
Настройки формата : CABAC / 10 Ref Frames
Параметр CABAC формата : Да
Параметр RefFrames формата : 10 кадров
Идентификатор кодека : V_MPEG4/ISO/AVC
Продолжительность : 1 ч. 41 м.
Битрейт : 1611 Кбит/сек
Ширина : 716 пикселей
Высота : 556 пикселей
Соотношение сторон : 1,421
Соотношение сторон в оригинале : 1,420
Режим частоты кадров : Постоянный
Частота кадров : 25,000 кадров/сек
Цветовое пространство : YUV
Субдискретизация насыщенности : 4:2:0
Битовая глубина : 8 бит
Тип развёртки : Прогрессивная
Бит/(Пиксели*Кадры) : 0.162
Размер потока : 1,11 Гбайт (76%)
Библиотека кодирования : x264 core 130 r2273 b3065e6
Настройки программы : cabac=1 / ref=10 / deblock=1:-2:-1 / analyse=0x3:0x113 / me=umh / subme=10 / psy=1 / psy_rd=1.00:0.00 / mixed_ref=1 / me_range=32 / chroma_me=1 / trellis=2 / 8x8dct=1 / cqm=0 / deadzone=21,11 / fast_pskip=1 / chroma_qp_offset=-2 / threads=6 / lookahead_threads=1 / sliced_threads=0 / nr=0 / decimate=0 / interlaced=0 / bluray_compat=0 / constrained_intra=0 / bframes=8 / b_pyramid=2 / b_adapt=2 / b_bias=0 / direct=3 / weightb=1 / open_gop=0 / weightp=2 / keyint=250 / keyint_min=25 / scenecut=40 / intra_refresh=0 / rc=2pass / mbtree=0 / bitrate=1611 / ratetol=1.0 / qcomp=0.60 / qpmin=0 / qpmax=69 / qpstep=4 / cplxblur=20.0 / qblur=0.5 / ip_ratio=1.40 / pb_ratio=1.30 / aq=1:1.00
Default : Да
Forced : Нет
Аудио
Идентификатор : 2
Формат : AC-3
Формат/Информация : Audio Coding 3
Идентификатор кодека : A_AC3
Продолжительность : 1 ч. 41 м.
Вид битрейта : Постоянный
Битрейт : 448 Кбит/сек
Каналы : 6 каналов
Расположение каналов : Front: L C R, Side: L R, LFE
Частота : 48,0 КГц
Частота кадров : 31,250 кадров/сек (1536 SPF)
Битовая глубина : 16 бит
Метод сжатия : С потерями
Размер потока : 325 Мбайт (22%)
Default : Да
Forced : Нет

Скриншоты

Связанные раздачи

Добавлен Тема Отв. Размер S / L Ссылка
25-Июн-19 18:04 Пиковая дама: Зазеркалье (2019) WEB-DLRip | iTunes 0 1.36 GB 0 | 0 Скачать .torrent
24-Июн-19 18:12 Пиковая дама: Зазеркалье (2019) WEB-DLRip-AVC | iTunes 0 1.37 GB 1 | 0 Скачать .torrent
05-Май-19 10:20 Пиковая дама: Черный обряд (2015) BDRip-AVC | Лицензия 0 746 MB 0 | 0 Скачать .torrent
24-Апр-19 18:35 Сборник - Пиковая дама. Супер сборник русского шансона (2017) MP3 0 678 MB 0 | 0 Скачать .torrent
Вы не можете начинать темы
Вы не можете отвечать на сообщения
Вы не можете редактировать свои сообщения
Вы не можете удалять свои сообщения
Вы не можете голосовать в опросах
Вы не можете прикреплять файлы к сообщениям
Вы не можете скачивать файлы

Текущее время: 06-Дек 20:46
Часовой пояс: UTC ± 0