Автор Сообщение
BOSS

112

Наличие запрета:

Пол: Мужской

Стаж: 5 года 9 месяца

Сообщений: 3365

Откуда: ODESSA

 Top Releaser 4 (1000 созданных раздач) Top Releaser 5 (3000 созданных раздач) Активисту Активный модератор Верный пользователь ХитРусТор За внесенный вклад в развитие сайта За новинки фильмов Уважаемый

Информация о фильме
Название: Они ползут за тобой
Оригинальное название: Them That Follow
Год выхода: 2019
Жанр: Триллер
Режиссер: Бриттани Поултон, Дэн Мэдисон Сэвидж
В ролях: Кейтлин Девер, Уолтон Гоггинс, Оливия Колман, Томас Манн, Джим Гэффиган, Льюис Пуллман, Элис Энглерт, Доминик Кансельер, Брэдли Галло, Энни Тедеско, Брукс Роузберри, Катрин Л. Альберс, Крис Брин, Логан Фрай, Кристин М. Прэтт
О фильме:
Герои фильма живут в отдалении от шумных и опасных мегаполисов. Далеко в горах их семья чувствует себя ближе к Богу и подальше от прегрешений современного мира. Лемуэль считает себя главным и проповедует свои жуткие правила. К примеру, полное подчинение женщин мужчинам. Тех, кто отказывается подчиняться правилам и случайно оступился, ждет жуткое наказание гремучими змеями. Проповедник считает, что только настоящие последователи религиозного культа смогут выжить и не быть укушенными змеей. Героиня Мара была прилежной и тихой девчонкой, однако тот факт, что её пообещали жалкому набожнику Гаррету совсем не обрадовало молодую девушку. Тем более, проблема в том что Мара влюблена в парня Оджи, от которого уже носит ребенка. Вскоре их ждет жестокое испытание, которое решит дальнейшую судьбу персонажей...

Страна: США
Студия: Amasia Entertainment, G-BASE
Продолжительность: 01:38:00
Перевод: Профессиональный многоголосый | iTunes
Файл
Кодек: AVC
Качество: WEB-DL 720p | AMZN
Видео: MPEG-4 AVC, 3773 Kбит/с, 1280x544, 23.976 кадр/с
Аудио #1: Русский (АС3, 6 ch, 384 Кбит/с, 48.0 KHz) Профессиональный (многоголосый, закадровый) iTunes
Аудио #2: Английский (АС3, 6 ch, 640 Кбит/с, 48.0 KHz)
Субтитры: Русские (full), английские (full, SDH)
Трейлер

MediaInfo

Источник: Them.That.Follow.2019.720p.AMZN.WEB-DL.DDP5.1.H.264-NTG
General
Unique ID : 242561151902991018934153955533929161533 (0xB67B941DC94C1B03968816CDDC25A33D)
Complete name : Them.That.Follow.2019.AMZN.WEB-DL.720p.mkv
Format : Matroska
Format version : Version 4
File size : 3.29 GiB
Duration : 1 h 37 min
Overall bit rate : 4 800 kb/s
Encoded date : UTC 2019-12-02 09:55:49
Writing application : mkvmerge v7.1.0 ('Good Love') 64bit built on Jul 27 2014 13:06:55
Writing library : libebml v1.3.0 + libmatroska v1.4.1
Video
ID : 1
Format : AVC
Format/Info : Advanced Video Codec
Format profile : High@L3.1
Format settings : CABAC / 4 Ref Frames
Format settings, CABAC : Yes
Format settings, Reference fra : 4 frames
Codec ID : V_MPEG4/ISO/AVC
Duration : 1 h 37 min
Bit rate mode : Constant
Bit rate : 3 773 kb/s
Nominal bit rate : 6 000 kb/s
Width : 1 280 pixels
Height : 544 pixels
Display aspect ratio : 2.35:1
Original display aspect ratio : 2.35:1
Frame rate mode : Constant
Frame rate : 23.976 (24000/1001) FPS
Color space : YUV
Chroma subsampling : 4:2:0
Bit depth : 8 bits
Scan type : Progressive
Bits/(Pixel*Frame) : 0.226
Stream size : 2.58 GiB (79%)
Language : English
Default : Yes
Forced : No
Color range : Limited
Color primaries : BT.709
Transfer characteristics : BT.709
Matrix coefficients : BT.709
Audio #1
ID : 2
Format : AC-3
Format/Info : Audio Coding 3
Commercial name : Dolby Digital
Codec ID : A_AC3
Duration : 1 h 37 min
Bit rate mode : Constant
Bit rate : 384 kb/s
Channel(s) : 6 channels
Channel layout : L R C LFE Ls Rs
Sampling rate : 48.0 kHz
Frame rate : 31.250 FPS (1536 SPF)
Compression mode : Lossy
Stream size : 269 MiB (8%)
Title : iTunes
Language : Russian
Service kind : Complete Main
Default : Yes
Forced : No
Audio #2
ID : 3
Format : AC-3
Format/Info : Audio Coding 3
Commercial name : Dolby Digital
Codec ID : A_AC3
Duration : 1 h 37 min
Bit rate mode : Constant
Bit rate : 640 kb/s
Channel(s) : 6 channels
Channel layout : L R C LFE Ls Rs
Sampling rate : 48.0 kHz
Frame rate : 31.250 FPS (1536 SPF)
Compression mode : Lossy
Stream size : 449 MiB (13%)
Language : English
Service kind : Complete Main
Default : No
Forced : No
Text #1
ID : 4
Format : UTF-8
Codec ID : S_TEXT/UTF8
Codec ID/Info : UTF-8 Plain Text
Duration : 1 h 32 min
Bit rate : 49 b/s
Count of elements : 766
Stream size : 33.9 KiB (0%)
Language : Russian
Default : No
Forced : No
Text #2
ID : 5
Format : UTF-8
Codec ID : S_TEXT/UTF8
Codec ID/Info : UTF-8 Plain Text
Duration : 1 h 30 min
Bit rate : 33 b/s
Count of elements : 753
Stream size : 21.8 KiB (0%)
Language : English
Default : No
Forced : No
Text #3
ID : 6
Format : UTF-8
Codec ID : S_TEXT/UTF8
Codec ID/Info : UTF-8 Plain Text
Duration : 1 h 32 min
Bit rate : 37 b/s
Count of elements : 959
Stream size : 25.2 KiB (0%)
Title : SDH
Language : English
Default : No
Forced : No

Скриншоты

Связанные раздачи

Добавлен Тема Отв. Размер S / L Ссылка
02-Дек-19 18:23 Они ползут за тобой / Them That Follow (2019) WEB-DLRip | iTunes 0 1.46 GB 0 | 0 Скачать .torrent
Вы не можете начинать темы
Вы не можете отвечать на сообщения
Вы не можете редактировать свои сообщения
Вы не можете удалять свои сообщения
Вы не можете голосовать в опросах
Вы не можете прикреплять файлы к сообщениям
Вы не можете скачивать файлы

Текущее время: 09-Дек 00:01
Часовой пояс: UTC ± 0