Автор Сообщение
BOSS

112

Наличие запрета:

Пол: Мужской

Стаж: 5 года 9 месяца

Сообщений: 3422

Откуда: ODESSA

 Top Releaser 4 (1000 созданных раздач) Top Releaser 5 (3000 созданных раздач) Активисту Активный модератор Верный пользователь ХитРусТор За внесенный вклад в развитие сайта За новинки фильмов Уважаемый

Страна: США
Студия: New Line Cinema, Golden Harvest Company Ltd.
Жанр: Фантастика, боевик, комедия
Год выпуска: 1990
Продолжительность: 01:33:33
Перевод 01: Любительский (многоголосый закадровый) | Nice Media (ex "Немое Кино")
Перевод 02-05: Авторский (одноголосый закадровый) | Ю. Живов, М. Ошурков, В. Дохалов, М. Иванов
Перевод 06: Одноголосый закадровый | Неизвестный
Субтитры: русские, английские
Оригинальная аудиодорожка: английская
Режиссер: Стив Бэррон / Steve Barron
В ролях: Джош Пэйс (Raphael / Man In Cab, озвучка), Мишлен Систи (Michaelangelo / Pizza Man), Лейф Тильден (Donatello / Foot Messenger), Дэвид Форман (Хит Рус Торр / Gang Leader), Робби Рист (Michaelangelo, озвучка), Кори Фельдман (Donatello, озвучка), Брайан Точи (Хит Рус Торр, озвучка), Джудит Хоаг (April O'Neil), Элиас Котеас (Casey Jones), Майкл Терни (Danny Pennington), Кевин Клэш (Splinter, озвучка), Джеймс Саито (The Shredder / Oroko Saki)
Описание: Четыре черепашки и крыса в канализационных трубах Нью-Йорка вляпались в радиационные отходы, мутировали и превратились в человеческого роста разумных черепашек, а крыса, которая раньше жила у японского мастера ниндзюцу, обучила их боевым искусствам.
Черепашки Леонардо, Рафаэль, Микеланджело и Донателло подружились с тележурналисткой и помогли остановить рост молодежной преступности.

Доп. информация: Этот фильм никогда не показывали по российскому телевидению в 90-х, отсутствие переводов подтверждает этот факт.
Дорожки 01 и 02 были получены наложением голоса на центральный канал.
За оцифровку VHS с переводом В. Дохалова спасибо Kino-profan, ранее выложенный перевод убит шумодавом.
Перевод М. Ошуркова наложили на английскую дорожку без синхронизации, присутствует эффект эха.
Дорожку Неизвестного на треккере везде раздают в формате 5.1, центральный канал английской дорожки заменили на запись с VHS. Звучит не так как должно и поэтому отдельный канал VHS здесь сохранен в двойное моно.
Сэмпл: https://yadi.sk/d/sNU6G36evVFusw
Тип релиза: BDRemux 1080p
Контейнер: MKV
Видео: VC-1, 25511 kbps, 1920x1080p, 16:9, 23.976 fps
Аудио 01: | MVO | DTS-HD MA | 48 KHz | 5.1 | 16 bits | 2055 kbps (DTS Core: 768 kbps) | Любительский (многоголосый закадровый) | Nice Media (ex "Немое Кино")
Аудио 02: | AVO | DTS-HD MA | 48 KHz | 5.1 | 16 bits | 2039 kbps (DTS Core: 768 kbps) | Авторский (одноголосый закадровый) | Ю. Живов
Аудио 03: | AVO | AC3 | 48 KHz | 2.0 | 192 kbps | Авторский (одноголосый закадровый) | М. Ошурков
Аудио 04: | AVO | AC3 | 48 KHz | Dual Mono | 192 kbps | Авторский (одноголосый закадровый) | В. Дохалов (VHS)
Аудио 05: | AVO | AC3 | 48 KHz | Dual Mono | 192 kbps | Авторский (одноголосый закадровый) | М. Иванов (VHS)
Аудио 06: | VO | AC3 | 48 KHz | Dual Mono | 192 kbps | Одноголосый закадровый | Неизвестный (VHS)
Аудио 07: | DTS-HD MA | 48 KHz | 5.1 | 16 bits | 2032 kbps (DTS Core: 768 kbps) | Original
Аудио 08: | AC3 | 48 KHz | 2.0 | 192 kbps | Commentary by Steve Barron (R2)
Субтитры 01, 05: | prerendered (Blu-ray/PGS/SUP)
Субтитры 02, 06: | softsub (SRT)
Субтитры 03, 07: | prerendered (Blu-ray/PGS/SUP) | SDH (для слабослышащих)
Субтитры 04, 08: | softsub (SRT) | SDH (для слабослышащих)

MediaInfo

Общее
Уникальный идентификатор : 190584135132144790527147185003051544650 (0x8F612B55C71887A24EB7DCB787C2F04A)
Полное имя : C:Teenage.Mutant.Ninja.Turtles.1990.BDRemux.1080p.6xRus.2xEng.mkv
Формат : Matroska
Версия формата : Version 4
Размер файла : 21,3 Гбайт
Продолжительность : 1 ч. 33 м.
Режим общего битрейта : Переменный
Общий поток : 32,6 Мбит/сек
Дата кодирования : UTC 2019-11-30 15:56:52
Программа кодирования : mkvmerge v40.0.0 ('Old Town Road + Pony') 64-bit
Библиотека кодирования : libebml v1.3.9 + libmatroska v1.5.2
Видео
Идентификатор : 1
Формат : VC-1
Профиль формата : Advanced@L3
Идентификатор кодека : V_MS/VFW/FOURCC / WVC1
Идентификатор кодека/Подсказка : Microsoft
Продолжительность : 1 ч. 33 м.
Битрейт : 25,5 Мбит/сек
Ширина : 1920 пикселей
Высота : 1080 пикселей
Соотношение сторон : 16:9
Режим частоты кадров : Постоянный
Частота кадров : 23,976 (24000/1001) кадра/сек
Цветовое пространство : YUV
Субдискретизация насыщенности : 4:2:0
Битовая глубина : 8 бит
Тип развёртки : Прогрессивная
Метод сжатия : С потерями
Бит/(Пиксели*Кадры) : 0.513
Размер потока : 16,7 Гбайт (78%)
Default : Да
Forced : Нет
Аудио #1
Идентификатор : 2
Формат : DTS XLL
Формат/Информация : Digital Theater Systems
Коммерческое название : DTS-HD Master Audio
Идентификатор кодека : A_DTS
Продолжительность : 1 ч. 33 м.
Вид битрейта : Переменный
Битрейт : 2055 Кбит/сек
Каналы : 6 каналов
ChannelLayout : C L R Ls Rs LFE
Частота : 48,0 КГц
Частота кадров : 93,750 кадра/сек (512 SPF)
Битовая глубина : 16 бит
Метод сжатия : Без потерь
Размер потока : 1,34 Гбайт (6%)
Заголовок : MVO | Nice Media (ex "Немое Кино")
Язык : Russian
Default : Нет
Forced : Нет
Аудио #2
Идентификатор : 3
Формат : DTS XLL
Формат/Информация : Digital Theater Systems
Коммерческое название : DTS-HD Master Audio
Идентификатор кодека : A_DTS
Продолжительность : 1 ч. 33 м.
Вид битрейта : Переменный
Битрейт : 2039 Кбит/сек
Каналы : 6 каналов
ChannelLayout : C L R Ls Rs LFE
Частота : 48,0 КГц
Частота кадров : 93,750 кадра/сек (512 SPF)
Битовая глубина : 16 бит
Метод сжатия : Без потерь
Размер потока : 1,33 Гбайт (6%)
Заголовок : AVO | Ю. Живов
Язык : Russian
Default : Да
Forced : Нет
Аудио #3
Идентификатор : 4
Формат : AC-3
Формат/Информация : Audio Coding 3
Коммерческое название : Dolby Digital
Идентификатор кодека : A_AC3
Продолжительность : 1 ч. 33 м.
Вид битрейта : Постоянный
Битрейт : 192 Кбит/сек
Каналы : 2 канала
ChannelLayout : L R
Частота : 48,0 КГц
Частота кадров : 31,250 кадров/сек (1536 SPF)
Метод сжатия : С потерями
Размер потока : 128 Мбайт (1%)
Заголовок : AVO | М. Ошурков
Язык : Russian
ServiceKind : Complete Main
Default : Нет
Forced : Нет
Аудио #4
Идентификатор : 5
Формат : AC-3
Формат/Информация : Audio Coding 3
Коммерческое название : Dolby Digital
Идентификатор кодека : A_AC3
Продолжительность : 1 ч. 33 м.
Вид битрейта : Постоянный
Битрейт : 192 Кбит/сек
Каналы : 2 канала
ChannelLayout : L R
Частота : 48,0 КГц
Частота кадров : 31,250 кадров/сек (1536 SPF)
Метод сжатия : С потерями
Размер потока : 129 Мбайт (1%)
Заголовок : AVO | В. Дохалов (VHS)
Язык : Russian
ServiceKind : Complete Main
Default : Нет
Forced : Нет
Аудио #5
Идентификатор : 6
Формат : AC-3
Формат/Информация : Audio Coding 3
Коммерческое название : Dolby Digital
Идентификатор кодека : A_AC3
Продолжительность : 1 ч. 33 м.
Вид битрейта : Постоянный
Битрейт : 192 Кбит/сек
Каналы : 2 канала
ChannelLayout : L R
Частота : 48,0 КГц
Частота кадров : 31,250 кадров/сек (1536 SPF)
Метод сжатия : С потерями
Размер потока : 128 Мбайт (1%)
Заголовок : AVO | М. Иванов (VHS)
Язык : Russian
ServiceKind : Complete Main
Default : Нет
Forced : Нет
Аудио #6
Идентификатор : 7
Формат : AC-3
Формат/Информация : Audio Coding 3
Коммерческое название : Dolby Digital
Идентификатор кодека : A_AC3
Продолжительность : 1 ч. 33 м.
Вид битрейта : Постоянный
Битрейт : 192 Кбит/сек
Каналы : 2 канала
ChannelLayout : L R
Частота : 48,0 КГц
Частота кадров : 31,250 кадров/сек (1536 SPF)
Метод сжатия : С потерями
Размер потока : 128 Мбайт (1%)
Заголовок : VO | Неизвестный (VHS)
Язык : Russian
ServiceKind : Complete Main
Default : Нет
Forced : Нет
Аудио #7
Идентификатор : 8
Формат : DTS XLL
Формат/Информация : Digital Theater Systems
Коммерческое название : DTS-HD Master Audio
Идентификатор кодека : A_DTS
Продолжительность : 1 ч. 33 м.
Вид битрейта : Переменный
Битрейт : 2032 Кбит/сек
Каналы : 6 каналов
ChannelLayout : C L R Ls Rs LFE
Частота : 48,0 КГц
Частота кадров : 93,750 кадра/сек (512 SPF)
Битовая глубина : 16 бит
Метод сжатия : Без потерь
Размер потока : 1,33 Гбайт (6%)
Заголовок : Original
Язык : English
Default : Нет
Forced : Нет
Аудио #8
Идентификатор : 9
Формат : AC-3
Формат/Информация : Audio Coding 3
Коммерческое название : Dolby Digital
Идентификатор кодека : A_AC3
Продолжительность : 1 ч. 33 м.
Вид битрейта : Постоянный
Битрейт : 192 Кбит/сек
Каналы : 2 канала
ChannelLayout : L R
Частота : 48,0 КГц
Частота кадров : 31,250 кадров/сек (1536 SPF)
Метод сжатия : С потерями
Размер потока : 128 Мбайт (1%)
Заголовок : Commentary by Steve Barron (R2)
Язык : English
ServiceKind : Complete Main
Default : Нет
Forced : Нет
Текст #1
Идентификатор : 10
Формат : PGS
Режим смешивания : zlib
Идентификатор кодека : S_HDMV/PGS
Идентификатор кодека/Информация : Picture based subtitle format used on BDs/HD-DVDs
Продолжительность : 1 ч. 27 м.
Битрейт : 23,3 Кбит/сек
ElementCount : 2300
Размер потока : 14,6 Мбайт (0%)
Язык : Russian
Default : Нет
Forced : Нет
Текст #2
Идентификатор : 11
Формат : UTF-8
Идентификатор кодека : S_TEXT/UTF8
Идентификатор кодека/Информация : UTF-8 Plain Text
Продолжительность : 1 ч. 27 м.
Битрейт : 86 бит/сек
ElementCount : 1149
Размер потока : 55,4 Кбайт (0%)
Язык : Russian
Default : Нет
Forced : Нет
Текст #3
Идентификатор : 12
Формат : PGS
Режим смешивания : zlib
Идентификатор кодека : S_HDMV/PGS
Идентификатор кодека/Информация : Picture based subtitle format used on BDs/HD-DVDs
Продолжительность : 1 ч. 27 м.
Битрейт : 27,9 Кбит/сек
ElementCount : 2708
Размер потока : 17,4 Мбайт (0%)
Заголовок : SDH
Язык : Russian
Default : Нет
Forced : Нет
Текст #4
Идентификатор : 13
Формат : UTF-8
Идентификатор кодека : S_TEXT/UTF8
Идентификатор кодека/Информация : UTF-8 Plain Text
Продолжительность : 1 ч. 27 м.
Битрейт : 82 бит/сек
ElementCount : 1353
Размер потока : 52,9 Кбайт (0%)
Заголовок : SDH
Язык : Russian
Default : Нет
Forced : Нет
Текст #5
Идентификатор : 14
Формат : PGS
Режим смешивания : zlib
Идентификатор кодека : S_HDMV/PGS
Идентификатор кодека/Информация : Picture based subtitle format used on BDs/HD-DVDs
Продолжительность : 1 ч. 27 м.
Битрейт : 23,4 Кбит/сек
ElementCount : 2284
Размер потока : 14,6 Мбайт (0%)
Язык : English
Default : Нет
Forced : Нет
Текст #6
Идентификатор : 15
Формат : UTF-8
Идентификатор кодека : S_TEXT/UTF8
Идентификатор кодека/Информация : UTF-8 Plain Text
Продолжительность : 1 ч. 27 м.
Битрейт : 66 бит/сек
ElementCount : 1141
Размер потока : 42,2 Кбайт (0%)
Язык : English
Default : Нет
Forced : Нет
Текст #7
Идентификатор : 16
Формат : PGS
Режим смешивания : zlib
Идентификатор кодека : S_HDMV/PGS
Идентификатор кодека/Информация : Picture based subtitle format used on BDs/HD-DVDs
Продолжительность : 1 ч. 27 м.
Битрейт : 27,5 Кбит/сек
ElementCount : 2694
Размер потока : 17,2 Мбайт (0%)
Заголовок : SDH
Язык : English
Default : Нет
Forced : Нет
Текст #8
Идентификатор : 17
Формат : UTF-8
Идентификатор кодека : S_TEXT/UTF8
Идентификатор кодека/Информация : UTF-8 Plain Text
Продолжительность : 1 ч. 27 м.
Битрейт : 59 бит/сек
ElementCount : 1347
Размер потока : 37,8 Кбайт (0%)
Заголовок : SDH
Язык : English
Default : Нет
Forced : Нет
Меню
00:00:00.000 : en:The Silent Crime Wave
00:04:55.295 : en:Main Titles; The Art of Invisibility
00:09:14.595 : en:Dinner is Served
00:11:18.511 : en:Encounter in the Park
00:14:35.916 : en:Master Yoshi's First Rule
00:16:07.966 : en:April Gets Tough with Chief Sterns
00:19:14.111 : en:Warning from the Foot
00:21:15.607 : en:The Turtles' Origins
00:26:06.898 : en:Pizza Party
00:27:21.139 : en:Splinter is Missing!
00:28:20.698 : en:Danny in Trouble; The Foot Affair
00:33:10.321 : en:Shredder
00:36:22.054 : en:The Foot Attacks!
00:49:29.466 : en:Danny Meets Splinter; Refuge in the Countryside
00:55:35.040 : en:Four Once Again
00:58:57.825 : en:Contacting Splinter
01:06:06.045 : en:Danny Returns to the Foot Lair
01:12:04.653 : en:The Foot Invades the Sewers
01:16:45.684 : en:The Turtles Meet Shredder
01:24:14.507 : en:Victory; End Credits

Скриншоты

Вы не можете начинать темы
Вы не можете отвечать на сообщения
Вы не можете редактировать свои сообщения
Вы не можете удалять свои сообщения
Вы не можете голосовать в опросах
Вы не можете прикреплять файлы к сообщениям
Вы не можете скачивать файлы

Текущее время: 14-Дек 21:59
Часовой пояс: UTC ± 0