Автор Сообщение
BOSS

112

Наличие запрета:

Пол: Мужской

Стаж: 5 года 9 месяца

Сообщений: 3365

Откуда: ODESSA

 Top Releaser 4 (1000 созданных раздач) Top Releaser 5 (3000 созданных раздач) Активисту Активный модератор Верный пользователь ХитРусТор За внесенный вклад в развитие сайта За новинки фильмов Уважаемый

Информация о фильме
Название: Акварель
Оригинальное название: Aquarela
Год выхода: 2018
Жанр: Документальный, Видовой, Природа
Режиссер: Виктор Косаковский
О фильме:
Фильм погружает зрителя в путешествие по преобразующей красоте и необузданной мощи воды, человек по сравнению с которой - ничто. Вода — главный герой фильма, и она показана во всех своих проявлениях и во всем масштабе: от опасных замерзших вод Байкала и страдающего от урагана «Ирма» Майами до величественных ледников Гренландии и мощного водопада Анхель в Венесуэле.

Страна: Великобритания, Германия, Дания, США
Студия: Ma.Ja.De Filmproduktion, Aconite Productions
Продолжительность: 01:29:48
Перевод: Не требуется - озвученных комментариев нет.
Субтитры: Английские
Релиз от: NNMClub
Качество: BDRemux 1080p
Видео: AVC/H.264, 1920x1080, (16:9), ~33.8 Mbps, 23.976 fps
Аудио 1: TrueHD Atmos, 8 ch, 3480 Kbps
Аудио 2: AC-3, 6 ch, 640 Kbps

MediaInfo:

General
Unique ID : 293139166703779440242252981640996804434 (0xDC888CC66D445F32C6C7A75EB0D75752)
Complete name : F:Aquarela.2018.BDRemux.1080p.NNMClub.mkv
Format : Matroska
Format version : Version 4
File size : 23.8 GiB
Duration : 1 h 29 min
Overall bit rate mode : Variable
Overall bit rate : 38.0 Mb/s
Encoded date : UTC 2019-12-02 08:04:22
Writing application : mkvmerge v40.0.0 ('Old Town Road + Pony') 64-bit
Writing library : libebml v1.3.9 + libmatroska v1.5.2
Video
ID : 1
Format : AVC
Format/Info : Advanced Video Codec
Format profile : High@L4.1
Format settings : CABAC / 2 Ref Frames
Format settings, CABAC : Yes
Format settings, Reference : 2 frames
Codec ID : V_MPEG4/ISO/AVC
Duration : 1 h 29 min
Bit rate mode : Variable
Bit rate : 33.8 Mb/s
Width : 1 920 pixels
Height : 1 080 pixels
Display aspect ratio : 16:9
Frame rate mode : Constant
Frame rate : 23.976 (24000/1001) FPS
Color space : YUV
Chroma subsampling : 4:2:0
Bit depth : 8 bits
Scan type : Progressive
Bits/(Pixel*Frame) : 0.679
Stream size : 21.2 GiB (89%)
Language : Russian
Default : No
Forced : No
Audio #1
ID : 2
Format : MLP FBA 16-ch
Format/Info : Meridian Lossless Packing FBA with 16-channel presentation
Commercial name : Dolby TrueHD with Dolby Atmos
Codec ID : A_TRUEHD
Duration : 1 h 29 min
Bit rate mode : Variable
Bit rate : 3 480 kb/s
Maximum bit rate : 5 553 kb/s
Channel(s) : 8 channels
Channel layout : L R C LFE Ls Rs Lb Rb
Sampling rate : 48.0 kHz
Frame rate : 1 200.000 FPS (40 SPF)
Compression mode : Lossless
Stream size : 2.18 GiB (9%)
Language : Russian
Default : No
Forced : No
Number of dynamic objects : 11
Bed channel count : 1 channel
Bed channel configuration : LFE
Audio #2
ID : 3
Format : AC-3
Format/Info : Audio Coding 3
Commercial name : Dolby Digital
Codec ID : A_AC3
Duration : 1 h 29 min
Bit rate mode : Constant
Bit rate : 640 kb/s
Channel(s) : 6 channels
Channel layout : L R C LFE Ls Rs
Sampling rate : 48.0 kHz
Frame rate : 31.250 FPS (1536 SPF)
Compression mode : Lossy
Stream size : 411 MiB (2%)
Language : Russian
Service kind : Complete Main
Default : No
Forced : No
Text
ID : 4
Format : UTF-8
Codec ID : S_TEXT/UTF8
Codec ID/Info : UTF-8 Plain Text
Duration : 1 h 3 min
Bit rate : 2 b/s
Count of elements : 52
Stream size : 1.09 KiB (0%)
Language : English
Default : No
Forced : No
Menu
00:00:00.000 : :Глава 01
00:07:44.172 : :Глава 02
00:15:26.843 : :Глава 03
00:18:41.579 : :Глава 04
00:22:40.859 : :Глава 05
00:27:00.536 : :Глава 06
00:32:48.300 : :Глава 07
00:37:27.162 : :Глава 08
00:41:57.181 : :Глава 09
00:45:59.840 : :Глава 10
00:49:04.900 : :Глава 11
00:54:15.502 : :Глава 12
01:00:04.476 : :Глава 13
01:08:39.240 : :Глава 14
01:13:13.180 : :Глава 15
01:19:35.437 : :Глава 16

Скриншоты

Связанные раздачи

Добавлен Тема Отв. Размер S / L Ссылка
06-Дек-19 18:55 Акварель / Aquarela (2018) BDRip 0 1.46 GB 0 | 0 Скачать .torrent
06-Дек-19 18:18 Акварель / Aquarela (2018) BDRip 1080p 0 8.93 GB 0 | 0 Скачать .torrent
14-Апр-19 17:47 Сборник - Музыкальная Акварель: Русский Сборник (2017) MP3 0 1.32 GB 0 | 0 Скачать .torrent
Вы не можете начинать темы
Вы не можете отвечать на сообщения
Вы не можете редактировать свои сообщения
Вы не можете удалять свои сообщения
Вы не можете голосовать в опросах
Вы не можете прикреплять файлы к сообщениям
Вы не можете скачивать файлы

Текущее время: 09-Дек 00:16
Часовой пояс: UTC ± 0