Автор Сообщение
BOSS

112

Наличие запрета:

Пол: Мужской

Стаж: 5 года 9 месяца

Сообщений: 3391

Откуда: ODESSA

 Top Releaser 4 (1000 созданных раздач) Top Releaser 5 (3000 созданных раздач) Активисту Активный модератор Верный пользователь ХитРусТор За внесенный вклад в развитие сайта За новинки фильмов Уважаемый

Название: Полицейский из Беверли-Хиллз 3
Оригинальное название: Beverly Hills Cop III
Год выхода: 1994
Жанр: боевик, триллер, комедия, криминал
Режиссер: Джон Лэндис
В ролях: Эдди Мёрфи, Джон Тенни, Джои Траволта, Юджин Колльер, Джимми Ортега, Усон Илам, Рэй Лайкинс, Тим Гилберт, Рик Эйвери, Гилберт Р. Хилл, Фред Аспарагус-О фильме:
После перерыва в семь лет полицейский из Детройта Аксель Фоули снова вынужден побывать у своих друзей в Беверли-Хиллз. Его приводят туда поиски убийцы любимого шефа.
В результате парк аттракционов «Мир чудес», где бандиты в жутком подполье печатали фальшивые доллары, стал ареной боевых действий, а наш герой отомстил убийцам, прославился и познакомился с очаровательной работницей парка.

Страна: США
Продолжительность: 01:44:13
Перевод: Авторский (одноголосый), профессиональный (дублированный), профессиональный (многоголосый), профессиональный (двухголосый)-Качество: BDRemux 1080p
Видео: MPEG-4 AVC, 1920x1080 (16:9), 33.8 Mbps, 23.976 fps
Звук:
№ 1: DTS-HD MA | 5.1 | 48.0 kHz | 3944 kbps - Авторский Михаил Яроцкий 'kyberpunk' - ненормативная лексика
№ 2: DTS-HD MA | 5.1 | 48.0 kHz | 4063 kbps - Авторский Андрей Гаврилов
№ 3: DTS | 5.1 | 48.0 kHz | 1509 kbps - Многоголосый, закадровый Киномания
№ 4: AC3 | 5.1 | 48.0 kHz | 448 kbps - Многоголосый, закадровый R5
№ 5: AC3 | 5.1 | 48.0 kHz | 384 kbps - Многоголосый, закадровый
№ 6: AC3 | 2.0 | 48.0 kHz | 192 kbps - Дублированный Ист-Вест - Мосфильм
№ 7: AC3 | 2.0 | 48.0 kHz | 192 kbps - Многоголосый, закадровый Премьер Видео Фильм
№ 8: AC3 | 2.0 | 48.0 kHz | 192 kbps - Многоголосый, закадровый СТС
№ 9: AC3 | 2.0 | 48.0 kHz | 192 kbps - Двухголосый, закадровый НТВ+
№ 10: AC3 | 2.0 | 48.0 kHz | 192 kbps - Авторский Антон Пронин
№ 11: AC3 | 2.0 | 48.0 kHz | 192 kbps - Многоголосый, закадровый 1+1 / Ukrainian
№ 12: DTS-HD MA | 5.1 | 48.0 kHz | 4072 kbps - English
Субтитры: Русские, английские

MI

General
Unique ID : 39796151252069084926891569482451864111 (0x1DF075BE6A9371E70E117C3183574A2F)
Complete name : C:MKV-iP27Beverly.Hills.Cop.III.1994.BDRemux.[iP27].mkv
Format : Matroska
Format version : Version 4
File size : 36.0 GiB
Duration : 1 h 44 min
Overall bit rate mode : Variable
Overall bit rate : 49.4 Mb/s
Movie name : Beverly Hills Cop III (Полицейский из Беверли-Хиллз 3) 1994 - [iP27]
Encoded date : UTC 2019-11-27 11:19:03
Writing application : mkvmerge v40.0.0 ('Old Town Road + Pony') 64-bit
Writing library : libebml v1.3.9 + libmatroska v1.5.2
Video
ID : 1
Format : AVC
Format/Info : Advanced Video Codec
Format profile : High@L4.1
Format settings : CABAC / 4 Ref Frames
Format settings, CABAC : Yes
Format settings, Reference frames : 4 frames
Codec ID : V_MPEG4/ISO/AVC
Duration : 1 h 44 min
Bit rate mode : Variable
Bit rate : 33.8 Mb/s
Maximum bit rate : 36.0 Mb/s
Width : 1 920 pixels
Height : 1 080 pixels
Display aspect ratio : 16:9
Frame rate mode : Constant
Frame rate : 23.976 (24000/1001) FPS
Color space : YUV
Chroma subsampling : 4:2:0
Bit depth : 8 bits
Scan type : Progressive
Bits/(Pixel*Frame) : 0.681
Stream size : 24.6 GiB (68%)
Language : English
Default : Yes
Forced : No
Audio #1
ID : 2
Format : DTS XLL
Format/Info : Digital Theater Systems
Commercial name : DTS-HD Master Audio
Codec ID : A_DTS
Duration : 1 h 44 min
Bit rate mode : Variable
Bit rate : 3 944 kb/s
Channel(s) : 6 channels
Channel layout : C L R Ls Rs LFE
Sampling rate : 48.0 kHz
Frame rate : 93.750 FPS (512 SPF)
Bit depth : 24 bits
Compression mode : Lossless
Stream size : 2.87 GiB (8%)
Title : AVO (М. Яроцкий 'kyberpunk')
Language : Russian
Default : Yes
Forced : No
Audio #2
ID : 3
Format : DTS XLL
Format/Info : Digital Theater Systems
Commercial name : DTS-HD Master Audio
Codec ID : A_DTS
Duration : 1 h 44 min
Bit rate mode : Variable
Bit rate : 4 063 kb/s
Channel(s) : 6 channels
Channel layout : C L R Ls Rs LFE
Sampling rate : 48.0 kHz
Frame rate : 93.750 FPS (512 SPF)
Bit depth : 24 bits
Compression mode : Lossless
Stream size : 2.96 GiB (8%)
Title : AVO (А. Гаврилов)
Language : Russian
Default : No
Forced : No
Audio #3
ID : 4
Format : DTS
Format/Info : Digital Theater Systems
Codec ID : A_DTS
Duration : 1 h 44 min
Bit rate mode : Constant
Bit rate : 1 509 kb/s
Channel(s) : 6 channels
Channel layout : C L R Ls Rs LFE
Sampling rate : 48.0 kHz
Frame rate : 93.750 FPS (512 SPF)
Bit depth : 24 bits
Compression mode : Lossy
Stream size : 1.10 GiB (3%)
Title : MVO (Киномания)
Language : Russian
Default : No
Forced : No
Audio #4
ID : 5
Format : AC-3
Format/Info : Audio Coding 3
Commercial name : Dolby Digital
Codec ID : A_AC3
Duration : 1 h 44 min
Bit rate mode : Constant
Bit rate : 448 kb/s
Channel(s) : 6 channels
Channel layout : L R C LFE Ls Rs
Sampling rate : 48.0 kHz
Frame rate : 31.250 FPS (1536 SPF)
Compression mode : Lossy
Stream size : 334 MiB (1%)
Title : MVO (R5)
Language : Russian
Service kind : Complete Main
Default : No
Forced : No
Audio #5
ID : 6
Format : AC-3
Format/Info : Audio Coding 3
Commercial name : Dolby Digital
Codec ID : A_AC3
Duration : 1 h 44 min
Bit rate mode : Constant
Bit rate : 384 kb/s
Channel(s) : 6 channels
Channel layout : L R C LFE Ls Rs
Sampling rate : 48.0 kHz
Frame rate : 31.250 FPS (1536 SPF)
Compression mode : Lossy
Stream size : 286 MiB (1%)
Title : MVO
Language : Russian
Service kind : Complete Main
Default : No
Forced : No
Audio #6
ID : 7
Format : AC-3
Format/Info : Audio Coding 3
Commercial name : Dolby Digital
Codec ID : A_AC3
Duration : 1 h 44 min
Bit rate mode : Constant
Bit rate : 192 kb/s
Channel(s) : 2 channels
Channel layout : L R
Sampling rate : 48.0 kHz
Frame rate : 31.250 FPS (1536 SPF)
Compression mode : Lossy
Stream size : 143 MiB (0%)
Title : Dub (Ист-Вест - Мосфильм)
Language : Russian
Service kind : Complete Main
Default : No
Forced : No
Audio #7
ID : 8
Format : AC-3
Format/Info : Audio Coding 3
Commercial name : Dolby Digital
Codec ID : A_AC3
Duration : 1 h 44 min
Bit rate mode : Constant
Bit rate : 192 kb/s
Channel(s) : 2 channels
Channel layout : L R
Sampling rate : 48.0 kHz
Frame rate : 31.250 FPS (1536 SPF)
Compression mode : Lossy
Stream size : 143 MiB (0%)
Title : MVO (Премьер)
Language : Russian
Service kind : Complete Main
Default : No
Forced : No
Audio #8
ID : 9
Format : AC-3
Format/Info : Audio Coding 3
Commercial name : Dolby Digital
Codec ID : A_AC3
Duration : 1 h 44 min
Bit rate mode : Constant
Bit rate : 192 kb/s
Channel(s) : 2 channels
Channel layout : L R
Sampling rate : 48.0 kHz
Frame rate : 31.250 FPS (1536 SPF)
Compression mode : Lossy
Stream size : 143 MiB (0%)
Title : MVO (СТС)
Language : Russian
Service kind : Complete Main
Default : No
Forced : No
Audio #9
ID : 10
Format : AC-3
Format/Info : Audio Coding 3
Commercial name : Dolby Digital
Codec ID : A_AC3
Duration : 1 h 44 min
Bit rate mode : Constant
Bit rate : 192 kb/s
Channel(s) : 2 channels
Channel layout : L R
Sampling rate : 48.0 kHz
Frame rate : 31.250 FPS (1536 SPF)
Compression mode : Lossy
Stream size : 143 MiB (0%)
Title : DVO (НТВ+)
Language : Russian
Service kind : Complete Main
Default : No
Forced : No
Audio #10
ID : 11
Format : AC-3
Format/Info : Audio Coding 3
Commercial name : Dolby Digital
Codec ID : A_AC3
Duration : 1 h 44 min
Bit rate mode : Constant
Bit rate : 192 kb/s
Channel(s) : 2 channels
Channel layout : L R
Sampling rate : 48.0 kHz
Frame rate : 31.250 FPS (1536 SPF)
Compression mode : Lossy
Stream size : 143 MiB (0%)
Title : AVO (А. Пронин)
Language : Russian
Service kind : Complete Main
Default : No
Forced : No
Audio #11
ID : 12
Format : AC-3
Format/Info : Audio Coding 3
Commercial name : Dolby Digital
Codec ID : A_AC3
Duration : 1 h 44 min
Bit rate mode : Constant
Bit rate : 192 kb/s
Channel(s) : 2 channels
Channel layout : L R
Sampling rate : 48.0 kHz
Frame rate : 31.250 FPS (1536 SPF)
Compression mode : Lossy
Stream size : 143 MiB (0%)
Title : MVO (1+1)
Language : Ukrainian
Service kind : Complete Main
Default : No
Forced : No
Audio #12
ID : 13
Format : DTS XLL
Format/Info : Digital Theater Systems
Commercial name : DTS-HD Master Audio
Codec ID : A_DTS
Duration : 1 h 44 min
Bit rate mode : Variable
Bit rate : 4 072 kb/s
Channel(s) : 6 channels
Channel layout : C L R Ls Rs LFE
Sampling rate : 48.0 kHz
Frame rate : 93.750 FPS (512 SPF)
Bit depth : 24 bits
Compression mode : Lossless
Stream size : 2.96 GiB (8%)
Title : Original
Language : English
Default : No
Forced : No
Text #1
ID : 14
Format : UTF-8
Codec ID : S_TEXT/UTF8
Codec ID/Info : UTF-8 Plain Text
Duration : 1 h 36 min
Bit rate : 92 b/s
Count of elements : 1072
Stream size : 65.3 KiB (0%)
Title : Uncensored
Language : Russian
Default : Yes
Forced : No
Text #2
ID : 15
Format : UTF-8
Codec ID : S_TEXT/UTF8
Codec ID/Info : UTF-8 Plain Text
Duration : 1 h 36 min
Bit rate : 54 b/s
Count of elements : 973
Stream size : 38.9 KiB (0%)
Language : English
Default : No
Forced : No
Menu
00:00:00.000 : en:Chapter 01
00:09:35.116 : en:Chapter 02
00:15:58.958 : en:Chapter 03
00:20:58.299 : en:Chapter 04
00:26:57.699 : en:Chapter 05
00:37:38.256 : en:Chapter 06
00:40:06.487 : en:Chapter 07
00:46:27.076 : en:Chapter 08
00:53:20.489 : en:Chapter 09
00:56:22.504 : en:Chapter 10
01:03:24.342 : en:Chapter 11
01:10:30.226 : en:Chapter 12
01:19:38.857 : en:Chapter 13
01:37:22.837 : en:Chapter 14

Скриншоты

Примечание

Перевод М. Яроцкого доступен благодаря dikii. Работа со звуком - Переводман.
Дорожка А. Гаврилова получены микшированием чистых голосов переводчиков с каналом оригинальной ХД дорожки. Спасибо **RVS** / Bluebird.
За дорожку СТС спасибо viktor1986t и Henry Cooper.
Дубляж и двухголоска НТВ+ со вставками СТС из-за сбоев.
За дубляж спасибо koh-ka.
Текст читали: Вадим Андреев, Владимир Ферапонтов, Дмитрий Матвеев, Владимир Герасимов, Марина Дюжева, Андрей Мартынов, Тимофей Спивак, Ян Янаки, Сергей Чекан и Владимир Антоник.
За НТВ+ спасибо JUSTKANT.
Текст читали: Игорь Тарадайкин и Людмила Шувалова.
Премьер Видео Фильм - текст читали: Алексей Золотницкий и Светлана Старикова.
За оцифровку перевода А. Пронина спасибо Fikaloid и Nekontroliruemij_devil.
За украинскую дорожку спасибо трекеру Hurtom.
Вы не можете начинать темы
Вы не можете отвечать на сообщения
Вы не можете редактировать свои сообщения
Вы не можете удалять свои сообщения
Вы не можете голосовать в опросах
Вы не можете прикреплять файлы к сообщениям
Вы не можете скачивать файлы

Текущее время: 11-Дек 06:21
Часовой пояс: UTC ± 0