Автор Сообщение
BOSS

112

Наличие запрета:

Пол: Мужской

Стаж: 6 года

Сообщений: 4434

Откуда: ODESSA

 Top Releaser 2 (250 созданных раздач) Top Releaser 3 (300 созданных раздач) Top Releaser 3 (500 созданных раздач) Top Releaser 4 (1000 созданных раздач) Top Releaser 5 (3000 созданных раздач) Активисту Активный модератор Верный пользователь ХитРусТор За внесенный вклад в развитие сайта За новинки фильмов Уважаемый

Информация о фильме
Название: Текст
Год выхода: 2019
Жанр: Драма, триллер
Режиссер: Клим Шипенко
В ролях: Александр Петров, Кристина Асмус, Иван Янковский, Софья Озерова, Максим Виноградов, Виталий Хаев, Дмитрий Глуховский, Кирилл Нагиев, Елена Финогеева
О фильме: Главный герой — 27-летний Илья Горюнов, семь лет отсидевший в тюрьме по ложному обвинению в распространении наркотиков. Когда Илья выходит на свободу, он понимает, что прежняя жизнь, по которой он тосковал, разрушена, и вернуться к ней он больше не сможет. Хотя он не собирался мстить человеку, который отправил его в тюрьму, другого выхода теперь нет. Встретившись лицом к лицу со своим обидчиком, Илья совершает необдуманный поступок, после которого главный герой получает доступ к смартфону Петра, а с ним и к жизни молодого человека — его фотографиям и видео, перепискам с родителями и девушкой Ниной, к странным, полным недомолвок и угроз переговорам с коллегами. На время Илья становится для всех Петром — через текст на экране телефона.-
Страна: Россия
Студия: Фонд развития современного кинематографа «КИНОПРАЙМ», Централ Партнершип, START Studio
Продолжительность: 02:11:30
Перевод: Русский язык
Файл
Кодек: MPEG-4 AVC
Качество: WEB-DL 1080p
Видео: 1920x1080, 6480 kb/s, 23.976 fps
Звук: 160 kb/s, 2 ch, 48000 kHz, AAC [RUS]
Субтитры: Отсутствуют
РЕКЛАМА ОТСУТСТВУЕТ
Источник видео: START (присутствует логотип)
18+ [ненормативная лексика, сцены сексуального характера]

MI

Формат : Matroska
Версия формата : Version 4 / Version 2
Размер файла : 6,04 Гбайт
Продолжительность : 2 ч. 11 м.
Общий поток : 6575 Кбит/сек
Дата кодирования : UTC 2019-12-13 13:56:20
Программа кодирования : mkvmerge v37.0.0 ('Leave It') 64-bit
Библиотека кодирования : libebml v1.3.9 + libmatroska v1.5.2
Видео
Идентификатор : 1
Формат : AVC
Формат/Информация : Advanced Video Codec
Профиль формата : [email protected]
Настройки формата : CABAC / 4 Ref Frames
Параметр CABAC формата : Да
Параметр RefFrames формата : 4 кадра
Идентификатор кодека : V_MPEG4/ISO/AVC
Продолжительность : 2 ч. 11 м.
Битрейт : 6480 Кбит/сек
Ширина : 1920 пикселей
Высота : 1080 пикселей
Соотношение сторон : 16:9
Режим частоты кадров : Постоянный
Частота кадров : 23,976 (23976/1000) кадра/сек
Цветовое пространство : YUV
Субдискретизация насыщенности : 4:2:0
Битовая глубина : 8 бит
Тип развёртки : Прогрессивная
Бит/(Пиксели*Кадры) : 0.130
Размер потока : 5,89 Гбайт (98%)
Библиотека кодирования : x264 core 152
Настройки программы : cabac=1 / ref=2 / deblock=1:0:0 / analyse=0x3:0x113 / me=hex / subme=6 / psy=1 / psy_rd=1.00:0.00 / mixed_ref=1 / me_range=16 / chroma_me=1 / trellis=1 / 8x8dct=1 / cqm=0 / deadzone=21,11 / fast_pskip=1 / chroma_qp_offset=-2 / threads=12 / lookahead_threads=2 / sliced_threads=0 / nr=0 / decimate=1 / interlaced=0 / bluray_compat=0 / constrained_intra=0 / bframes=3 / b_pyramid=2 / b_adapt=1 / b_bias=0 / direct=1 / weightb=1 / open_gop=0 / weightp=1 / keyint=120 / keyint_min=48 / scenecut=40 / intra_refresh=0 / rc_lookahead=30 / rc=abr / mbtree=1 / bitrate=6480 / ratetol=1.0 / qcomp=0.60 / qpmin=0 / qpmax=69 / qpstep=4 / vbv_maxrate=7776 / vbv_bufsize=15552 / nal_hrd=none / filler=0 / ip_ratio=1.40 / aq=1:1.00
Default : Да
Forced : Нет
Аудио
Идентификатор : 2
Формат : AAC
Формат/Информация : Advanced Audio Codec
Профиль формата : LC
Идентификатор кодека : A_AAC-2
Продолжительность : 2 ч. 11 м.
Битрейт : 160 Кбит/сек
Каналы : 2 канала
Расположение каналов : Front: L R
Частота : 48,0 КГц
Частота кадров : 46,875 кадров/сек (1024 SPF)
Метод сжатия : С потерями
Задержка видео : -83 мс.
Размер потока : 150 Мбайт (2%)
Язык : Russian
Default : Да
Forced : Нет

Скриншоты

Связанные раздачи

Добавлен Тема Отв. Размер S / L Ссылка
29-Дек-19 14:30 Текст (2019) WEB-DLRip | iTunes 0 745 MB 807 | 23 Скачать .torrent
01-Дек-19 09:34 Текст (2019) WEBRip 720p 0 1.21 GB 0 | 0 Скачать .torrent
13-Окт-19 04:03 VA - Русское. Понятные тексты (2019) MP3 0 2.39 GB 0 | 0 Скачать .torrent
Вы не можете начинать темы
Вы не можете отвечать на сообщения
Вы не можете редактировать свои сообщения
Вы не можете удалять свои сообщения
Вы не можете голосовать в опросах
Вы не можете прикреплять файлы к сообщениям
Вы не можете скачивать файлы

Текущее время: 27-Фев 18:06
Часовой пояс: UTC ± 0