Автор Сообщение
Swager

1146

Наличие запрета:

Пол: Мужской

Стаж: 4 года 6 месяца

Сообщений: 763

 Top Releaser 2 (250 созданных раздач) Top Releaser 3 (300 созданных раздач) Top Releaser 3 (500 созданных раздач) Активный модератор

Футбол. Лига Европы УЕФА 2019–2020. 1/16 Финала. 2-й матч.
Брага (Португалия) — Рейнджерс (Шотландия) (2020) IPTVRip [H.264/720p-LQ]
« 2019–2020 UEFA Europa League »
- Телекомпания: Матч ТВ HD
Жанр: Спорт
Комментатор: Роман Трушечкин
Описание:
Лига Европы УЕФА 2019-2020. 1/16 Финала
26 февраля 2020, среда. 20:00 МСК. 2-й матч:
Брага (Брага, Португалия) — Рейнджерс (Глазго, Шотландия)
Стадион: AXA - Мунисипал-ди-Брага (Брага, Португалия), 18113 зрителей (60 % при вместимости 30154)
Главный судья: Андреас Экберг (Швеция)
Ассистенты: Мехмет Чулум (Швеция); Стефан Хальберг (Швеция)
Резервный: Гленн Нюберг (Швеция)
Продолжительность: 01:45:14
Качество видео: IPTVRip
Язык озвучки: Русский
Субтитры: отсутствуют
Видео: AVC/H.264, 1280x720 (16:9), ~4200 Kbps, 25 fps
Аудио: AAC, 2 ch, 48 kHz, 192 Kbps

Mediainfo:

Общее
Уникальный идентификатор : 276579319797250705407939927974967258965 (0xD0133D494A6D929368558A7DDEFC2F55)
Полное имя : F:\SPORT\Футбол\UEFA Лига Европы\UEFA Europa League 2019-2020.R32.2nd leg. Braga – Rangers 26.02.2020.mkv
Формат : Matroska
Версия формата : Version 4
Размер файла : 3,23 Гбайт
Продолжительность : 1 ч. 45 м.
Общий поток : 4398 Кбит/сек
Дата кодирования : UTC 2020-02-28 04:13:29
Программа кодирования : mkvmerge v43.0.0 ('The Quartermaster') 64-bit
Библиотека кодирования : libebml v1.3.10 + libmatroska v1.5.2
Видео
Идентификатор : 1
Формат : AVC
Формат/Информация : Advanced Video Codec
Профиль формата :
Настройки формата : CABAC / 3 Ref Frames
Параметр CABAC формата : Да
Параметр RefFrames формата : 3 кадра
Параметр GOP формата : M=1, N=25
Идентификатор кодека : V_MPEG4/ISO/AVC
Продолжительность : 1 ч. 45 м.
Вид битрейта : Постоянный
Битрейт : 4200 Кбит/сек
Ширина : 1280 пикселей
Высота : 720 пикселей
Соотношение сторон : 16:9
Режим частоты кадров : Постоянный
Частота кадров : 25,000 кадров/сек
Цветовое пространство : YUV
Субдискретизация насыщенности : 4:2:0
Битовая глубина : 8 бит
Тип развёртки : Прогрессивная
Бит/(Пиксели*Кадры) : 0.182
Размер потока : 3,09 Гбайт (95%)
Default : Да
Forced : Нет
Аудио
Идентификатор : 2
Формат : AAC LC
Формат/Информация : Advanced Audio Codec Low Complexity
Идентификатор кодека : A_AAC-2
Продолжительность : 1 ч. 45 м.
Битрейт : 192 Кбит/сек
Каналы : 2 канала
Channel layout : L R
Частота : 48,0 КГц
Частота кадров : 46,875 кадров/сек (1024 SPF)
Метод сжатия : С потерями
Размер потока : 147 Мбайт (4%)
Язык : Russian
Default : Да
Forced : Нет
Скриншоты:

Связанные раздачи

Добавлен Тема Отв. Размер S / L Ссылка
19-Апр-19 13:08 Лига Чемпионов 2018-2019 / 1/4 финала / Ответный матч / Манчестер Сити (Англия) - Тоттенхэм Хотспур (Англия) / Матч ТВ HD [17.04.2019, Футбол, HDTVRip/400p, AVI/XviD, RU/INT] 0 1.6 GB 0 | 0 Скачать .torrent
19-Апр-19 13:07 Лига Чемпионов 2018-2019 / 1/4 финала / Ответный матч / Порту (Португалия) – Ливерпуль (Англия) / Матч Футбол 1 HD [17.04.2019, Футбол, HDTVRip/400p, AVI/XviD, RU] 0 1.54 GB 0 | 0 Скачать .torrent
19-Апр-19 13:06 Лига Чемпионов 2018-2019 / 1/4 финала / Ответный матч / Манчестер Сити (Англия) - Тоттенхэм Хотспур (Англия) / BT Sport 2 HD [17.04.2019, футбол, IPTV/1080p/25fps, MKV/H.264, EN] + PreGame 0 3.52 GB 0 | 0 Скачать .torrent
19-Апр-19 13:06 Лига Чемпионов 2018-2019 / 1/4 финала / Ответный матч / Порту (Португалия) – Ливерпуль (Англия) / Матч Футбол 1 HD [17.04.2019, Футбол, HDTV/1080i, TS/H.264, RU] 0 7.39 GB 0 | 0 Скачать .torrent
19-Апр-19 13:05 Лига Чемпионов 2018-2019 / 1/4 финала / Ответный матч / Манчестер Сити (Англия) – Тоттенхэм Хотспур (Англия) / Матч Футбол 2 HD [17.04.2019, Футбол, HDTV/1080i, TS/H.264, RU] 0 5.43 GB 0 | 0 Скачать .torrent
Вы не можете начинать темы
Вы не можете отвечать на сообщения
Вы не можете редактировать свои сообщения
Вы не можете удалять свои сообщения
Вы не можете голосовать в опросах
Вы не можете прикреплять файлы к сообщениям
Вы не можете скачивать файлы

Текущее время: 30-Мар 10:04
Часовой пояс: UTC ± 0