Автор Сообщение
BOSS

112

Наличие запрета:

Пол: Мужской

Стаж: 6 года 1 месяц

Сообщений: 4951

Откуда: ODESSA

 Top Releaser 2 (250 созданных раздач) Top Releaser 3 (300 созданных раздач) Top Releaser 3 (500 созданных раздач) Top Releaser 4 (1000 созданных раздач) Top Releaser 5 (3000 созданных раздач) Активисту Активный модератор Верный пользователь ХитРусТор За внесенный вклад в развитие сайта За новинки фильмов Орден от администрации Уважаемый

Страна: СССР
Производство: Ленфильм
Жанр: военный
Год выпуска: 1964
Продолжительность: 01:21:28
Перевод: Не требуется
Cубтитры: нет
Оригинальная аудиодорожка: русский
Режиссер: Юлий Файт

Игорь Косухин, Виктор Авдюшко, Светлана Светличная, Владимир Белокуров, Александр Демьяненко, Юрий Соловьёв, Андрей Файт, Геннадий Крашенинников, Александр Анисимов, Георгий Жжёнов, Александр Суснин...
Об актёрах подробней

Волховский фронт 1942 года. Молодой политрук отдела контрпропаганды штаба дивизии Русанов рвется на передовую. Он добирается до передовой и ведет со звукопередвижки передачи, обращенные к немецким солдатам. А в часы затишья проходит по несколько километров ради того, чтобы увидеть Катю, связистку соседнего участка фронта…- [img]http://Хит Рус Торр.org/images/sample_video.png[/img]-Исходник: DVB
Качество видео: SATRip
Формат видео: AVI
Видео: 688x272 (2,529:1), 25,000 кадров/сек, XviD 73 ~ 1076 Кбит/сек, 0.230 bit/pixel
Аудио: 48 kHz, Dolby Digital AC3 2.0, 192 kbps

MediaInfo

Общее
Полное имя : Poka.front.v.oborone.1964.SATRip_[Хит Рус Торр]_by_AVP_Studio.avi
Формат : AVI
Формат/Информация : Audio Video Interleave
Размер файла : 744 Мбайт
Продолжительность : 1 ч. 21 м.
Общий поток : 1278 Кбит/сек
Программа кодирования : VirtualDubMod 1.5.10.3 | www.virtualdub-fr.org || (build 2550/release)
Библиотека кодирования : VirtualDubMod build 2550/release
Видео
Идентификатор : 0
Формат : MPEG-4 Visual
Профиль формата : Advanced [email protected]
Настройки формата : BVOP1 / Custom Matrix
Параметр BVOP формата : 1
Параметр QPel формата : Нет
Параметр GMC формата : Без точки перехода
Параметр матрицы формата : Выборочная
Идентификатор кодека : XVID
Идентификатор кодека/Подсказка : XviD
Продолжительность : 1 ч. 21 м.
Битрейт : 1076 Кбит/сек
Ширина : 688 пикселей
Высота : 272 пикселя
Соотношение сторон : 2,529
Частота кадров : 25,000 кадров/сек
Цветовое пространство : YUV
Субдискретизация насыщенности : 4:2:0
Битовая глубина : 8 бит
Тип развёртки : Прогрессивная
Метод сжатия : С потерями
Бит/(Пиксели*Кадры) : 0.230
Размер потока : 627 Мбайт (84%)
Библиотека кодирования : XviD 73
Аудио
Идентификатор : 1
Формат : AC-3
Формат/Информация : Audio Coding 3
Коммерческое название : Dolby Digital
Идентификатор кодека : 2000
Продолжительность : 1 ч. 21 м.
Вид битрейта : Постоянный
Битрейт : 192 Кбит/сек
Каналы : 2 канала
ChannelLayout : L R
Частота : 48,0 КГц
Частота кадров : 31,250 кадров/сек (1536 SPF)
Метод сжатия : С потерями
Размер потока : 112 Мбайт (15%)
Выравнивание : Разделение по промежуткам
Продолжительность промежутка : 40 мс. (1,00 видеокадр)
Время предзагрузки промежутка : 500 мс

Скриншоты

Вы не можете начинать темы
Вы не можете отвечать на сообщения
Вы не можете редактировать свои сообщения
Вы не можете удалять свои сообщения
Вы не можете голосовать в опросах
Вы не можете прикреплять файлы к сообщениям
Вы не можете скачивать файлы

Текущее время: 30-Мар 10:21
Часовой пояс: UTC ± 0