Автор Сообщение
sergej644

170

Наличие запрета:

Пол: Мужской

Стаж: 8 месяца 8 дня

Сообщений: 4097

Откуда: Atlantic Ocean

 Top Releaser 5 (3000 созданных раздач) Top Seeder 3 (5 терабайт отданного) Top Seeder 4 (10 терабайт отданного) верныйсид За внесенный вклад в развитие сайта За новинки музыки Красивое оформление Меценат Уважаемый

Аладдин / Aladdin (2019) BDRip 3D [H.264/1080p-LQ] [вертикальная анаморфная стереопара] [hand made 16:9]- Производство: США / Walt Disney Pictures, Lin Pictures, Rideback
Жанр: Мюзикл, фэнтези, мелодрама, комедия, приключения, семейный
Режиссер: Гай Ричи
Актеры: Мена Массуд, Наоми Скотт, Уилл Смит, Билли Магнуссен, Алан Тьюдик, Назим Педрад, Марван Кензари, Нуман Аджар, Фрэнк Уэлкер, Навид Негабан
Описание:
Молодой воришка по имени Аладдин хочет стать принцем, чтобы жениться на принцессе Жасмин. Тем временем визирь Аграбы Джафар намеревается захватить власть над Аграбой, а для этого он стремится заполучить волшебную лампу, хранящуюся в пещере чудес, доступ к которой разрешен лишь тому, кого называют «алмаз неограненный», и этим человеком является не кто иной, как сам Аладдин.-
Возраст: 6+ (зрителям, достигшим 6 лет)
Рейтинг MPAA: PG (рекомендуется присутствие родителей)
Дата мировой премьеры: 8 мая 2019
Дата российской премьеры: 23 мая 2019
Продолжительность: 02:07:58
Качество видео: BDRip 3D
Перевод: Дублированный (iTunes)
Субтитры: Русские (форс., полные), английские (полные)
Видео: AVC/H.264, 1920x1080, ~7 Mbps
Аудио #1: AC3, 6 ch, 384 Kbps - Русский
Аудио #2: AC3, 6 ch, 640 Kbps - Английский

MediaInfo:

x264 info: frame I:2261  Avg QP:18.13  size:180647
x264 info: frame P:46898 Avg QP:19.68 size: 71469
x264 info: frame B:134945 Avg QP:21.20 size: 21916
Unique ID : 223133617794799273355617481347757658083 (0xA7DDF8BB8063381C9586026E7BD24FE3)
Complete name : D:\Temp\NNM\3D.Aladdin.1080p.FS.mkv
Format : Matroska
Format version : Version 4 / Version 2
File size : 7.17 GiB
Duration : 2h 7mn
Overall bit rate : 8 025 Kbps
Movie name : ALADDIN_3D_RMX.Title0
Encoded date : UTC 2019-09-13 11:49:52
Writing application : mkvmerge v9.8.0 ('Kuglblids') 64bit
Writing library : Lavf57.71.100
Video
ID : 1
Format : AVC
Format/Info : Advanced Video Codec
Format profile :
Format settings, CABAC : Yes
Format settings, ReFrames : 4 frames
Codec ID : V_MPEG4/ISO/AVC
Duration : 2h 7mn
Bit rate : 7 000 Kbps
Width : 1 920 pixels
Height : 1 080 pixels
Display aspect ratio : 16:9
Frame rate mode : Constant
Frame rate : 23.976 fps
Color space : YUV
Chroma subsampling : 4:2:0
Bit depth : 8 bits
Scan type : Progressive
Bits/(Pixel*Frame) : 0.141
Stream size : 6.12 GiB (85%)
Writing library : x264 core 157 r2935 545de2f
Encoding settings : cabac=1 / ref=4 / deblock=1:-3:-3 / analyse=0x3:0x113 / me=umh / subme=10 / psy=1 / psy_rd=1.05:0.10 / mixed_ref=1 / me_range=24 / chroma_me=1 / trellis=2 / 8x8dct=1 / cqm=0 / deadzone=21,11 / fast_pskip=0 / chroma_qp_offset=-3 / threads=5 / lookahead_threads=1 / sliced_threads=0 / nr=0 / decimate=0 / interlaced=0 / bluray_compat=0 / constrained_intra=0 / bframes=6 / b_pyramid=2 / b_adapt=2 / b_bias=0 / direct=1 / weightb=1 / open_gop=0 / weightp=2 / keyint=240 / keyint_min=24 / scenecut=40 / intra_refresh=0 / rc=2pass / mbtree=0 / bitrate=7000 / ratetol=1.0 / qcomp=0.70 / qpmin=3 / qpmax=69 / qpstep=4 / cplxblur=20.0 / qblur=0.5 / ip_ratio=1.40 / pb_ratio=1.30 / aq=2:1.00
Default : Yes
Forced : No
Audio #1
ID : 2
Format : AC-3
Format/Info : Audio Coding 3
Mode extension : CM (complete main)
Format settings, Endianness : Big
Codec ID : A_AC3
Duration : 2h 7mn
Bit rate mode : Constant
Bit rate : 384 Kbps
Channel(s) : 6 channels
Channel positions : Front: L C R, Side: L R, LFE
Sampling rate : 48.0 KHz
Bit depth : 16 bits
Compression mode : Lossy
Stream size : 352 MiB (5%)
Language : Russian
Default : Yes
Forced : No
Audio #2
ID : 3
Format : AC-3
Format/Info : Audio Coding 3
Mode extension : CM (complete main)
Format settings, Endianness : Big
Codec ID : A_AC3
Duration : 2h 7mn
Bit rate mode : Constant
Bit rate : 640 Kbps
Channel(s) : 6 channels
Channel positions : Front: L C R, Side: L R, LFE
Sampling rate : 48.0 KHz
Bit depth : 16 bits
Compression mode : Lossy
Stream size : 586 MiB (8%)
Language : English
Default : No
Forced : No
Text #1
ID : 4
Format : UTF-8
Codec ID : S_TEXT/UTF8
Codec ID/Info : UTF-8 Plain Text
Title : Форсированные
Language : Russian
Default : Yes
Forced : No
Text #2
ID : 5
Format : UTF-8
Codec ID : S_TEXT/UTF8
Codec ID/Info : UTF-8 Plain Text
Title : Полные
Language : Russian
Default : No
Forced : No
Text #3
ID : 6
Format : UTF-8
Codec ID : S_TEXT/UTF8
Codec ID/Info : UTF-8 Plain Text
Title : Full
Language : English
Default : No
Forced : No
Menu
00:00:00.000 : : 1. "Arabian Nights"
00:04:49.372 : : 2. "One Jump Ahead"
00:13:04.659 : : 3. Is This Where You Live?
00:18:55.760 : : 4. "Speechless"
00:26:18.410 : : 5. I Have My Ways
00:30:26.324 : : 6. Cave of Wonders
00:39:51.889 : : 7. "Friend Like Me"
00:54:50.162 : : 8. "Prince Ali"
01:02:18.652 : : 9. This Is a Party
01:09:19.489 : : 10. "A Whole New World"
01:21:53.033 : : 11. Where Is the Lamp?
01:33:51.417 : : 12. I Wish to Be Sultan of Agrabah
01:38:48.381 : : 13. Stand with the People of Agrabah
01:45:19.396 : : 14. Most Powerful in the Universe
01:53:07.030 : : 15. Your Last Wish
01:59:38.463 : : 16. End Credits
Скриншоты:
Время раздачи: 24/7 (до появления первых 3-5 скачавших)

Связанные раздачи

Добавлен Тема Отв. Размер S / L Ссылка
03-Окт-19 17:33 Аладдин / Aladdin (2019) BDRip | Лицензия 0 2.18 GB 0 | 0 Скачать .torrent
03-Окт-19 17:32 Аладдин / Aladdin (2019) Blu-ray EUR 1080p | Лицензия  0 36.99 GB 0 | 0 Скачать .torrent
02-Окт-19 22:56 Аладдин / Aladdin (2019) BDRip 1080p | Лицензия  0 13.02 GB 0 | 0 Скачать .torrent
15-Сен-19 10:54 Аладдин / Аладдін / Aladdin (2019) BDRip-HEVC 1080p | D | UKR  0 10.41 GB 0 | 0 Скачать .torrent
15-Сен-19 10:54 Аладдин / Аладдін / Aladdin (2019) BDRip 1080p | D | UKR  0 16.68 GB 0 | 0 Скачать .torrent
Вы не можете начинать темы
Вы не можете отвечать на сообщения
Вы не можете редактировать свои сообщения
Вы не можете удалять свои сообщения
Вы не можете голосовать в опросах
Вы не можете прикреплять файлы к сообщениям
Вы не можете скачивать файлы

Текущее время: 12-Дек 03:19
Часовой пояс: UTC ± 0