Автор Сообщение
sergej644

170

Наличие запрета:

Пол: Мужской

Стаж: 8 месяца 2 дня

Сообщений: 4089

Откуда: Atlantic Ocean

 Top Releaser 5 (3000 созданных раздач) Top Seeder 3 (5 терабайт отданного) Top Seeder 4 (10 терабайт отданного) верныйсид За внесенный вклад в развитие сайта За новинки музыки Красивое оформление Меценат Уважаемый

ABBA – 9 Studio + 1 Compilation Albums Deluxe Edition:
Ring Ring, Waterloo, ABBA, Arrival, The Album,
Voulez-Vous, Super Trouper, The Visitors,
Gracias Por La Musica, GOLD. Greatest Hits
- -9 Studio + 1 Compilation Albums Deluxe Edition, Remastered, 12CD-Жанр: Euro Disco, Pop Rock Страна-производитель диска: EU, Germany
Оригинальные года издания : 1973-1981 Года издания: 2006-2014
Издатель (лейбл): Polar, Universal Страна: Sweden
Аудиокодек: FLAC (*.flac) Тип рипа: image+.cue Битрейт аудио: lossless
Продолжительность: 13:25:01 Источник (релизер): Собственный
Наличие сканов в содержимом раздачи: да (PNG - 300dpi & JPG – 600dpi, 1.12Gb)-Wikipedia | Official page-

О данном материале

ABBA – величайшая шведская поп группа, образованная в Стокгольме в 1972 году. Название составлено из первых букв имён участников Anni-Frid "Frida" Lyngstad , Björn Ulvaeus , Benny Andersson и Agnetha Fältskog. Пластинок группы было продано более 375 миллионов (4-е место в мире в истории музыкальных записей) и до сих пор продаётся 2-3 миллиона дисков в год. 15 марта 2010 года группа ABBA была включена в The Rock and Roll Hall of Fame.
В состав данной раздачи вошли все восемь студийных альбома, один альбом на испанском языке и один сборный альбом. Все альбомы были ремастированы и выпущены в варианте Deluxe Edition (CD+DVD или 3CD) в упаковке DigiBox на 4-е разворота, кроме The Visitors (Jewel Box). В состав каждого издания (кроме сборника 3CD) вошли:
- CD с оригинальным треклистом и плюс бонус треки;
- DVD с записями группы на различных TV, документальный фильмы и клипы (ссылки на раздачи DVD находятся под спойлерами соответствующих альбомов);
- Буклет на 20-28 страниц.
-Studio Albums

1973 - ABBA - Ring Ring (2013, Remastered, Deluxe Edition, CD+DVD, Polar, 00602537349449) - 01:15:06

Треклист:
01. Ring Ring - 3:05
02. Another Town, Another Train - 3:12
03. Disillusion - 3:06
04. People Need Love - 2:46
05. I Saw It In The Mirror - 2:35
06. Nina, Pretty Ballerina - 2:52
07. Love Isn't Easy (But It Sure Is Hard Enough) - 2:57
08. Me And Bobby And Bobby's Brother - 2:51
09. He Is Your Brother - 3:19
10. She's My Kind Of Girl - 2:46
11. I Am Just A Girl - 3:04
12. Rock'n Roll Band - 3:17
Bonus Tracks :
13. Ring, Ring [Bara Du Slog En Signal] [Swedish Version] - 3:09
14. Merry-Go-Round - 3:26
15. Santa Rosa - 3:02
16. Ring Ring [Spanish Version] - 3:02
17. Wer Im Wartesaal Der Liebe Steht [German Version Of 'Another Town, Another Tr... - 3:20
18. Ring Ring [German Version] - 3:11
19. En Halsning Till Vara Parkarrangorer - 2:27
Extra Bonus Tracks – Early Versions :
20. Hej Gamle Man - 3:21
21. There’S A Little Man - 2:45
22. I Saw It In The Mirror - 2:20
23. Jag Ar Blott En Man - 3:04
24. Man Vill Ju Leva Lite Dessemellan - 2:53
25. Valkommen Till Varlden - 3:19

DVD из этого издания -

Лог создания рипа (EAC)

Exact Audio Copy V1.0 beta 3 from 29. August 2011-EAC extraction logfile from 2. November 2013, 8:20-ABBA / Ring Ring (2013, Deluxe Edition)-Used drive  : ATAPI   iHAS124   B   Adapter: 2  ID: 0-Read mode               : Secure
Utilize accurate stream : Yes
Defeat audio cache : Yes
Make use of C2 pointers : No-Read offset correction : 6
Overread into Lead-In and Lead-Out : No
Fill up missing offset samples with silence : Yes
Delete leading and trailing silent blocks : No
Null samples used in CRC calculations : Yes
Used interface : Native Win32 interface for Win NT & 2000-Used output format : User Defined Encoder
Selected bitrate : 1024 kBit/s
Quality : High
Add ID3 tag : No
Command line compressor : C:\Program Files (x86)\Exact Audio Copy\FLAC\FLAC.EXE
Additional command line options : -8 -V -T "ARTIST=%artist%" -T "TITLE=%title%" -T "ALBUM=%albumtitle%" -T "DATE=%year%" -T "TRACKNUMBER=%tracknr%" -T "GENRE=%genre%" -T "PERFORMER=%albuminterpret%" -T "COMPOSER=%composer%" %haslyrics%--tag-from-file=LYRICS="%lyricsfile%"%haslyrics% -T "ALBUMARTIST=%albumartist%" -T "DISCNUMBER=%cdnumber%" -T "TOTALDISCS=%totalcds%" -T "TOTALTRACKS=%numtracks%" -T "COMMENT=%comment%" %source% -o %dest%-TOC of the extracted CD-Track | Start | Length | Start sector | End sector
---------------------------------------------------------
1 | 0:00.00 | 3:04.55 | 0 | 13854
2 | 3:04.55 | 3:12.26 | 13855 | 28280
3 | 6:17.06 | 3:05.42 | 28281 | 42197
4 | 9:22.48 | 2:46.25 | 42198 | 54672
5 | 12:08.73 | 2:34.62 | 54673 | 66284
6 | 14:43.60 | 2:52.32 | 66285 | 79216
7 | 17:36.17 | 2:56.54 | 79217 | 92470
8 | 20:32.71 | 2:51.08 | 92471 | 105303
9 | 23:24.04 | 3:19.19 | 105304 | 120247
10 | 26:43.23 | 2:45.44 | 120248 | 132666
11 | 29:28.67 | 3:03.42 | 132667 | 146433
12 | 32:32.34 | 3:16.66 | 146434 | 161199
13 | 35:49.25 | 3:08.72 | 161200 | 175371
14 | 38:58.22 | 3:25.38 | 175372 | 190784
15 | 42:23.60 | 3:02.21 | 190785 | 204455
16 | 45:26.06 | 3:01.40 | 204456 | 218070
17 | 48:27.46 | 3:19.56 | 218071 | 233051
18 | 51:47.27 | 3:10.57 | 233052 | 247358
19 | 54:58.09 | 2:26.42 | 247359 | 258350
20 | 57:24.51 | 3:20.41 | 258351 | 273391
21 | 60:45.17 | 2:45.23 | 273392 | 285789
22 | 63:30.40 | 2:20.26 | 285790 | 296315
23 | 65:50.66 | 3:03.60 | 296316 | 310100
24 | 68:54.51 | 2:53.04 | 310101 | 323079
25 | 71:47.55 | 3:18.42 | 323080 | 337971-Range status and errors-Selected range-Filename G:\CD\ABBA - Ring Ring (2013, DE).wav-Peak level 98.8 %
Extraction speed 6.8 X
Range quality 100.0 %
Test CRC AB510066
Copy CRC AB510066
Copy OK-No errors occurred-AccurateRip summary-Track 1 not present in database
Track 2 not present in database
Track 3 not present in database
Track 4 not present in database
Track 5 not present in database
Track 6 not present in database
Track 7 not present in database
Track 8 not present in database
Track 9 not present in database
Track 10 not present in database
Track 11 not present in database
Track 12 not present in database
Track 13 not present in database
Track 14 not present in database
Track 15 not present in database
Track 16 not present in database
Track 17 not present in database
Track 18 not present in database
Track 19 not present in database
Track 20 not present in database
Track 21 not present in database
Track 22 not present in database
Track 23 not present in database
Track 24 not present in database
Track 25 not present in database-None of the tracks are present in the AccurateRip database-End of status report-==== Log checksum 519F7C6062EA422A71474DF9EA64E544A627A6B4087DC506D6C4AAF68FEA38DD ====

Back, CD, CD Matrix

1974 - ABBA - Waterloo (2014, Remastered, 40th Anniversary Deluxe Edition, CD+DVD, Polar, 00602537645374) - 00:59:14

Треклист:
01. Waterloo - 2:46
02. Sitting In The Palmtree - 3:40
03. King Kong Song - 3:15
04. Hasta Manana - 3:09
05. My Mama Said - 3:16
06. Dance (While The Music Still Goes On) - 3:13
07. Honey Honey - 2:56
08. Watch Out - 3:47
09. What About Livingstone - 2:56
10. Gonna Sing You My Lovesong - 3:38
11. Suzy-Hang-Around - 3:16
Bonus Tracks :
12. Ring Ring (US Remix 1974) - 3:07
13. Waterloo (Swedish Version) - 2:46
14. Honey Honey (Swedish Version) - 2:58
15. Waterloo (German Version) - 2:44
16. Hasta Manana (Spanish Version) - 3:09
17. Waterloo (French Version) - 2:42
18. Ring Ring (1974 Remix - Single Version) - 3:11
19. Waterloo (Alternate Mix) - 2:44

DVD из этого издания -

Лог создания рипа (EAC)

Exact Audio Copy V1.0 beta 3 from 29. August 2011-EAC extraction logfile from 17. May 2014, 5:28-ABBA / Waterloo (2014, Deluxe Edition)-Used drive  : ATAPI   iHAS124   B   Adapter: 1  ID: 0-Read mode               : Secure
Utilize accurate stream : Yes
Defeat audio cache : Yes
Make use of C2 pointers : No-Read offset correction : 6
Overread into Lead-In and Lead-Out : No
Fill up missing offset samples with silence : Yes
Delete leading and trailing silent blocks : No
Null samples used in CRC calculations : Yes
Used interface : Installed external ASPI interface-Used output format : User Defined Encoder
Selected bitrate : 128 kBit/s
Quality : High
Add ID3 tag : Yes
Command line compressor : C:\Program Files (x86)\Exact Audio Copy\Flac\flac.exe
Additional command line options : -V -8 %source%-TOC of the extracted CD-Track | Start | Length | Start sector | End sector
---------------------------------------------------------
1 | 0:00.00 | 2:46.04 | 0 | 12453
2 | 2:46.04 | 3:40.02 | 12454 | 28955
3 | 6:26.06 | 3:14.68 | 28956 | 43573
4 | 9:40.74 | 3:09.24 | 43574 | 57772
5 | 12:50.23 | 3:15.66 | 57773 | 72463
6 | 16:06.14 | 3:13.07 | 72464 | 86945
7 | 19:19.21 | 2:56.33 | 86946 | 100178
8 | 22:15.54 | 3:47.33 | 100179 | 117236
9 | 26:03.12 | 2:55.74 | 117237 | 130435
10 | 28:59.11 | 3:37.62 | 130436 | 146772
11 | 32:36.73 | 3:16.24 | 146773 | 161496
12 | 35:53.22 | 3:06.67 | 161497 | 175513
13 | 39:00.14 | 2:46.05 | 175514 | 187968
14 | 41:46.19 | 2:57.46 | 187969 | 201289
15 | 44:43.65 | 2:44.27 | 201290 | 213616
16 | 47:28.17 | 3:09.11 | 213617 | 227802
17 | 50:37.28 | 2:41.72 | 227803 | 239949
18 | 53:19.25 | 3:10.41 | 239950 | 254240
19 | 56:29.66 | 2:44.29 | 254241 | 266569-Range status and errors-Selected range-Filename G:\CD\ABBA - Waterloo (2014, DE).wav-Peak level 98.8 %
Extraction speed 8.5 X
Range quality 100.0 %
Test CRC 86856878
Copy CRC 86856878
Copy OK-No errors occurred-AccurateRip summary-Track 1 accurately ripped (confidence 3) [EEE071CD] (AR v2)
Track 2 accurately ripped (confidence 3) [7D546F19] (AR v2)
Track 3 accurately ripped (confidence 3) [5CE29899] (AR v2)
Track 4 accurately ripped (confidence 3) [A1331A8A] (AR v2)
Track 5 accurately ripped (confidence 3) [CD3F050D] (AR v2)
Track 6 accurately ripped (confidence 3) [5AFE4D13] (AR v2)
Track 7 accurately ripped (confidence 3) [4AE046F1] (AR v2)
Track 8 accurately ripped (confidence 3) [80706B07] (AR v2)
Track 9 accurately ripped (confidence 3) [0674EDFB] (AR v2)
Track 10 accurately ripped (confidence 3) [1CFF9C81] (AR v2)
Track 11 accurately ripped (confidence 3) [3A38F1BE] (AR v2)
Track 12 accurately ripped (confidence 3) [95748420] (AR v2)
Track 13 accurately ripped (confidence 3) [FB0D69F2] (AR v2)
Track 14 accurately ripped (confidence 3) [39E41C24] (AR v2)
Track 15 accurately ripped (confidence 3) [CC690D6F] (AR v2)
Track 16 accurately ripped (confidence 3) [8FD2FD4F] (AR v2)
Track 17 accurately ripped (confidence 3) [7492C35D] (AR v2)
Track 18 accurately ripped (confidence 3) [6E342AF5] (AR v2)
Track 19 accurately ripped (confidence 3) [644981F1] (AR v2)-All tracks accurately ripped-End of status report----- CUETools DB Plugin V2.1.3-[CTDB TOCID: 0.VOHu_uUkomj5XjzgWM2ZR3FO8-] found, Submit result: 0.VOHu_uUkomj5XjzgWM2ZR3FO8- has been confirmed
[5750bd8d] (6/6) Accurately ripped-==== Log checksum 85E330C9D58110A7F0D1179B38F557E124946C1D01E9E94EA5C12FDF8A2CFDBF ====

Back, CD, CD Matrix

1975 - ABBA - ABBA (Remastered 2005, Reissued 2012, Deluxe Edition, Polar, 00602537123094) - 00:48:18

Треклист:
01. Mamma Mia - 3:34
02. Hey, Hey, Helen - 3:18
03. Tropical Loveland - 3:06
04. SOS - 3:23
05. Man in the Middle - 3:03
06. Bang-A-Boomerang - 3:04
07. I do, I do, I do, I do, I do - 3:15
08. Rock Me - 3:06
09. Intermezzo No 1 - 3:47
10. I.ve Been Waiting For You - 3:42
11. So Long - 3:10
Bonus Tracks :
12. Crazy World - 3:51
13. Medley (Pick a Bale of Cotton - On Top of Old Smokey - Midnight Special) - 4:22
14. Mamma Mia (Spanish version) - 3:37

DVD из этого издания -

Лог создания рипа (EAC)

Exact Audio Copy V1.0 beta 3 from 29. August 2011-EAC extraction logfile from 13. April 2013, 19:03-ABBA / ABBA (2012 Deluxe Edition)-Used drive  : ATAPI   iHAS124   B   Adapter: 2  ID: 0-Read mode               : Secure
Utilize accurate stream : Yes
Defeat audio cache : Yes
Make use of C2 pointers : No-Read offset correction : 6
Overread into Lead-In and Lead-Out : No
Fill up missing offset samples with silence : Yes
Delete leading and trailing silent blocks : No
Null samples used in CRC calculations : Yes
Used interface : Native Win32 interface for Win NT & 2000-Used output format : User Defined Encoder
Selected bitrate : 1024 kBit/s
Quality : High
Add ID3 tag : No
Command line compressor : C:\Program Files (x86)\Exact Audio Copy\FLAC\FLAC.EXE
Additional command line options : -8 -V -T "ARTIST=%artist%" -T "TITLE=%title%" -T "ALBUM=%albumtitle%" -T "DATE=%year%" -T "TRACKNUMBER=%tracknr%" -T "GENRE=%genre%" -T "PERFORMER=%albuminterpret%" -T "COMPOSER=%composer%" %haslyrics%--tag-from-file=LYRICS="%lyricsfile%"%haslyrics% -T "ALBUMARTIST=%albumartist%" -T "DISCNUMBER=%cdnumber%" -T "TOTALDISCS=%totalcds%" -T "TOTALTRACKS=%numtracks%" -T "COMMENT=%comment%" %source% -o %dest%-TOC of the extracted CD-Track | Start | Length | Start sector | End sector
---------------------------------------------------------
1 | 0:00.00 | 3:33.45 | 0 | 16019
2 | 3:33.45 | 3:17.54 | 16020 | 30848
3 | 6:51.24 | 3:06.14 | 30849 | 44812
4 | 9:57.38 | 3:22.49 | 44813 | 60011
5 | 13:20.12 | 3:02.55 | 60012 | 73716
6 | 16:22.67 | 3:04.13 | 73717 | 87529
7 | 19:27.05 | 3:15.30 | 87530 | 102184
8 | 22:42.35 | 3:06.33 | 102185 | 116167
9 | 25:48.68 | 3:47.02 | 116168 | 133194
10 | 29:35.70 | 3:42.03 | 133195 | 149847
11 | 33:17.73 | 3:09.39 | 149848 | 164061
12 | 36:27.37 | 3:51.12 | 164062 | 181398
13 | 40:18.49 | 4:22.04 | 181399 | 201052
14 | 44:40.53 | 3:36.66 | 201053 | 217318-Range status and errors-Selected range-Filename G:\CD\ABBA - ABBA (2012, DE).wav-Peak level 99.3 %
Extraction speed 5.5 X
Range quality 100.0 %
Test CRC 43102F16
Copy CRC 43102F16
Copy OK-No errors occurred-AccurateRip summary-Track 1 accurately ripped (confidence 1) [15837554] (AR v2)
Track 2 accurately ripped (confidence 1) [A701F68E] (AR v2)
Track 3 accurately ripped (confidence 1) [4CECA1F8] (AR v2)
Track 4 accurately ripped (confidence 1) [09C7557A] (AR v2)
Track 5 accurately ripped (confidence 1) [771C8629] (AR v2)
Track 6 accurately ripped (confidence 1) [ABEEFABA] (AR v2)
Track 7 accurately ripped (confidence 1) [985AAA26] (AR v2)
Track 8 accurately ripped (confidence 1) [843F9B69] (AR v2)
Track 9 accurately ripped (confidence 1) [68A12183] (AR v2)
Track 10 accurately ripped (confidence 1) [13CE4780] (AR v2)
Track 11 accurately ripped (confidence 1) [4259383E] (AR v2)
Track 12 accurately ripped (confidence 1) [0F8A60E9] (AR v2)
Track 13 accurately ripped (confidence 1) [039A10A7] (AR v2)
Track 14 accurately ripped (confidence 1) [6F1F7ACF] (AR v2)-All tracks accurately ripped-End of status report-==== Log checksum DE5FC8BE5C4108F0C6EFBCAD1D7B3F997FE6842D21F5D95C8E6252A68D1CA8E0 ====

Back, CD, Matrix

1976 - ABBA - Arrival (Remastered 2005, Reissued 2006, 30th Anniversary Deluxe Edition, Polar, 985836-2) - 00:58:57

Треклист:
01. When I Kissed The Teacher - 3:03
02. Dancing Queen - 3:53
03. My Love, My Life - 3:54
04. Dum Dum Diddle - 2:56
05. Knowing Me, Knowing You - 4:03
06. Money, Money, Money - 3:08
07. That's Me - 3:17
08. Why Did It Have To Be Me - 3:22
09. Tiger - 2:57
10. Arrival - 3:07
Bonus Tracks :
11. Fernando - 4:15
12. Happy Hawaii - 4:25
13. Fernando (Spanish Version) - 4:18
14. La Reina Del Baile (Spanish Version Of Dancing Queen) - 4:03
15. Conociendome, Conociendote (Spanish Version Of Knowing Me, Knowing You) - 4:03
16. Fernando (Frida's Swedish Solo Version) - 4:13

DVD из этого издания -

Лог создания рипа (EAC)

Exact Audio Copy V1.0 beta 3 from 29. August 2011-EAC extraction logfile from 13. April 2013, 19:26-ABBA / Arrival (2006, Deluxe Edition)-Used drive  : ATAPI   iHAS124   B   Adapter: 2  ID: 0-Read mode               : Secure
Utilize accurate stream : Yes
Defeat audio cache : Yes
Make use of C2 pointers : No-Read offset correction : 6
Overread into Lead-In and Lead-Out : No
Fill up missing offset samples with silence : Yes
Delete leading and trailing silent blocks : No
Null samples used in CRC calculations : Yes
Used interface : Native Win32 interface for Win NT & 2000-Used output format : User Defined Encoder
Selected bitrate : 1024 kBit/s
Quality : High
Add ID3 tag : No
Command line compressor : C:\Program Files (x86)\Exact Audio Copy\FLAC\FLAC.EXE
Additional command line options : -8 -V -T "ARTIST=%artist%" -T "TITLE=%title%" -T "ALBUM=%albumtitle%" -T "DATE=%year%" -T "TRACKNUMBER=%tracknr%" -T "GENRE=%genre%" -T "PERFORMER=%albuminterpret%" -T "COMPOSER=%composer%" %haslyrics%--tag-from-file=LYRICS="%lyricsfile%"%haslyrics% -T "ALBUMARTIST=%albumartist%" -T "DISCNUMBER=%cdnumber%" -T "TOTALDISCS=%totalcds%" -T "TOTALTRACKS=%numtracks%" -T "COMMENT=%comment%" %source% -o %dest%-TOC of the extracted CD-Track | Start | Length | Start sector | End sector
---------------------------------------------------------
1 | 0:00.00 | 3:03.00 | 0 | 13724
2 | 3:03.00 | 3:53.00 | 13725 | 31199
3 | 6:56.00 | 3:54.00 | 31200 | 48749
4 | 10:50.00 | 2:55.62 | 48750 | 61936
5 | 13:45.62 | 4:02.53 | 61937 | 80139
6 | 17:48.40 | 3:07.52 | 80140 | 94216
7 | 20:56.17 | 3:16.73 | 94217 | 108989
8 | 24:13.15 | 3:22.10 | 108990 | 124149
9 | 27:35.25 | 2:56.72 | 124150 | 137421
10 | 30:32.22 | 3:06.55 | 137422 | 151426
11 | 33:39.02 | 4:14.50 | 151427 | 170526
12 | 37:53.52 | 4:24.68 | 170527 | 190394
13 | 42:18.45 | 4:17.72 | 190395 | 209741
14 | 46:36.42 | 4:03.33 | 209742 | 227999
15 | 50:40.00 | 4:03.32 | 228000 | 246256
16 | 54:43.32 | 4:13.13 | 246257 | 265244-Range status and errors-Selected range-Filename G:\CD\ABBA - Arrival (2006, DE).wav-Peak level 99.8 %
Extraction speed 6.0 X
Range quality 100.0 %
Test CRC B1C6BA0F
Copy CRC B1C6BA0F
Copy OK-No errors occurred-AccurateRip summary-Track 1 accurately ripped (confidence 13) [4E3D4285] (AR v1)
Track 2 accurately ripped (confidence 11) [1E9DA502] (AR v1)
Track 3 accurately ripped (confidence 11) [6D8ACC3E] (AR v1)
Track 4 accurately ripped (confidence 11) [9F88B4F9] (AR v1)
Track 5 accurately ripped (confidence 11) [BC0F69C3] (AR v1)
Track 6 accurately ripped (confidence 11) [4F5A9282] (AR v1)
Track 7 accurately ripped (confidence 11) [9C05600A] (AR v1)
Track 8 accurately ripped (confidence 11) [EBB9C85B] (AR v1)
Track 9 accurately ripped (confidence 11) [B3E4378C] (AR v1)
Track 10 accurately ripped (confidence 11) [E654EABD] (AR v1)
Track 11 accurately ripped (confidence 11) [DCAA2EF7] (AR v1)
Track 12 accurately ripped (confidence 11) [0DF491EA] (AR v1)
Track 13 accurately ripped (confidence 11) [81C8E7DF] (AR v1)
Track 14 accurately ripped (confidence 11) [4B9C9A71] (AR v1)
Track 15 accurately ripped (confidence 12) [C5E31D23] (AR v1)
Track 16 accurately ripped (confidence 12) [D743F62A] (AR v1)-All tracks accurately ripped-End of status report-==== Log checksum 6DAD5DD4028C73D7731005BF99A321098ACA9E3CF6172630EE2EF46EBB1CE00C ====

Back, CD, Matrix

1977 - ABBA - The Album (Remastered 2005, Reissued 2007, 30th Anniversary Deluxe Edition, Polar, 060251731763) - 01:06:42

Треклист:
01. Eagle - 5:53
02. Take A Chance On Me - 4:07
03. One Man, One Woman - 4:34
04. The Name Of The Game - 4:54
05. Move On - 4:43
06. Hole In Your Soul - 3:43
07. Thank You For The Music - 3:51
08. I Wonder (Departure) - 4:33
09. I'm A Marionette - 4:10
Bonus Tracks :
10. Eagle (Single Edit) - 4:27
11. Take A Chance On Me (Live Version Alternate Mix) - 4:34
12. Thank You For The Music (Doris Day Version) - 4:04
13. Al Andar (Spanish Version Of 'Move On') - 4:45
14. I Wonder (Departure) (Live Version) - 4:33
15. Gracias Por La Musica (Spanish Version Of 'Thank You For The Music') - 3:50

DVD из этого издания -

Лог создания рипа (EAC)

Exact Audio Copy V1.0 beta 3 from 29. August 2011-EAC extraction logfile from 13. April 2013, 19:47-ABBA / The Album (2007, Deluxe Edition)-Used drive  : ATAPI   iHAS124   B   Adapter: 2  ID: 0-Read mode               : Secure
Utilize accurate stream : Yes
Defeat audio cache : Yes
Make use of C2 pointers : No-Read offset correction : 6
Overread into Lead-In and Lead-Out : No
Fill up missing offset samples with silence : Yes
Delete leading and trailing silent blocks : No
Null samples used in CRC calculations : Yes
Used interface : Native Win32 interface for Win NT & 2000-Used output format : User Defined Encoder
Selected bitrate : 1024 kBit/s
Quality : High
Add ID3 tag : No
Command line compressor : C:\Program Files (x86)\Exact Audio Copy\FLAC\FLAC.EXE
Additional command line options : -8 -V -T "ARTIST=%artist%" -T "TITLE=%title%" -T "ALBUM=%albumtitle%" -T "DATE=%year%" -T "TRACKNUMBER=%tracknr%" -T "GENRE=%genre%" -T "PERFORMER=%albuminterpret%" -T "COMPOSER=%composer%" %haslyrics%--tag-from-file=LYRICS="%lyricsfile%"%haslyrics% -T "ALBUMARTIST=%albumartist%" -T "DISCNUMBER=%cdnumber%" -T "TOTALDISCS=%totalcds%" -T "TOTALTRACKS=%numtracks%" -T "COMMENT=%comment%" %source% -o %dest%-TOC of the extracted CD-Track | Start | Length | Start sector | End sector
---------------------------------------------------------
1 | 0:00.00 | 5:53.24 | 0 | 26498
2 | 5:53.24 | 4:07.30 | 26499 | 45053
3 | 10:00.54 | 4:34.22 | 45054 | 65625
4 | 14:35.01 | 4:54.02 | 65626 | 87677
5 | 19:29.03 | 4:43.17 | 87678 | 108919
6 | 24:12.20 | 3:42.68 | 108920 | 125637
7 | 27:55.13 | 3:50.55 | 125638 | 142942
8 | 31:45.68 | 4:32.61 | 142943 | 163403
9 | 36:18.54 | 4:10.15 | 163404 | 182168
10 | 40:28.69 | 4:26.71 | 182169 | 202189
11 | 44:55.65 | 4:34.08 | 202190 | 222747
12 | 49:29.73 | 4:03.73 | 222748 | 241045
13 | 53:33.71 | 4:45.12 | 241046 | 262432
14 | 58:19.08 | 4:32.49 | 262433 | 282881
15 | 62:51.57 | 3:49.59 | 282882 | 300115-Range status and errors-Selected range-Filename G:\CD\ABBA - The Album (2007, DE).wav-Peak level 98.8 %
Extraction speed 6.6 X
Range quality 100.0 %
Test CRC E6983417
Copy CRC E6983417
Copy OK-No errors occurred-AccurateRip summary-Track 1 accurately ripped (confidence 2) [D9674A8E] (AR v2)
Track 2 accurately ripped (confidence 2) [281A318D] (AR v2)
Track 3 accurately ripped (confidence 2) [2A4B8BDF] (AR v2)
Track 4 accurately ripped (confidence 2) [FB65A76D] (AR v2)
Track 5 accurately ripped (confidence 2) [AC3A6A20] (AR v2)
Track 6 accurately ripped (confidence 2) [DCD6A4FD] (AR v2)
Track 7 accurately ripped (confidence 2) [D59D96E5] (AR v2)
Track 8 accurately ripped (confidence 2) [529D2A35] (AR v2)
Track 9 accurately ripped (confidence 2) [F7335F20] (AR v2)
Track 10 accurately ripped (confidence 2) [CDED01AE] (AR v2)
Track 11 accurately ripped (confidence 2) [A1DC06ED] (AR v2)
Track 12 accurately ripped (confidence 2) [9B8151FA] (AR v2)
Track 13 accurately ripped (confidence 2) [3367C17E] (AR v2)
Track 14 accurately ripped (confidence 2) [69D8310C] (AR v2)
Track 15 accurately ripped (confidence 2) [D6A91CCA] (AR v2)-All tracks accurately ripped-End of status report-==== Log checksum ADBDD37A8D31F3B10B60A668CA2766CEF224B5E7EDEBE7884C1913A854A28A79 ====

Back, CD, Matrix

1979 - ABBA - Voulez-Vous (2010, Remastered, Deluxe Edition, Polar, 060251797144) - 01:04:53

Треклист:
01. As Good As New - 3:24
02. Voulez-Vous - 5:09
03. I Have A Dream - 4:45
04. Angeleyes - 4:23
05. The King Has Lost His Crown - 3:35
06. Does Your Mother Know - 3:15
07. If It Wasn't For The Nights - 5:11
08. Chiquitita - 5:27
09. Lovers (Live A Little Longer) - 3:31
10. Kisses Of Fire - 3:23
Bonus Tracks :
11. Summer Night City [full length version] - 4:21
12. Lovelight - 3:48
13. Gimme! Gimme! Gimme! (A Man After Midnight) - 4:50
14. Dream World - 3:39
15. Voulez-Vous [extended remix, 1979 promo] - 6:11

DVD из этого издания -

Лог создания рипа (EAC)

Exact Audio Copy V1.0 beta 3 from 29. August 2011-EAC extraction logfile from 13. April 2013, 20:10-ABBA / Voulez-Vous (2010, Deluxe Edition)-Used drive  : ATAPI   iHAS124   B   Adapter: 2  ID: 0-Read mode               : Secure
Utilize accurate stream : Yes
Defeat audio cache : Yes
Make use of C2 pointers : No-Read offset correction : 6
Overread into Lead-In and Lead-Out : No
Fill up missing offset samples with silence : Yes
Delete leading and trailing silent blocks : No
Null samples used in CRC calculations : Yes
Used interface : Native Win32 interface for Win NT & 2000-Used output format : User Defined Encoder
Selected bitrate : 1024 kBit/s
Quality : High
Add ID3 tag : No
Command line compressor : C:\Program Files (x86)\Exact Audio Copy\FLAC\FLAC.EXE
Additional command line options : -8 -V -T "ARTIST=%artist%" -T "TITLE=%title%" -T "ALBUM=%albumtitle%" -T "DATE=%year%" -T "TRACKNUMBER=%tracknr%" -T "GENRE=%genre%" -T "PERFORMER=%albuminterpret%" -T "COMPOSER=%composer%" %haslyrics%--tag-from-file=LYRICS="%lyricsfile%"%haslyrics% -T "ALBUMARTIST=%albumartist%" -T "DISCNUMBER=%cdnumber%" -T "TOTALDISCS=%totalcds%" -T "TOTALTRACKS=%numtracks%" -T "COMMENT=%comment%" %source% -o %dest%-TOC of the extracted CD-Track | Start | Length | Start sector | End sector
---------------------------------------------------------
1 | 0:00.00 | 3:23.73 | 0 | 15297
2 | 3:23.73 | 5:08.72 | 15298 | 38469
3 | 8:32.70 | 4:44.57 | 38470 | 59826
4 | 13:17.52 | 4:22.67 | 59827 | 79543
5 | 17:40.44 | 3:34.45 | 79544 | 95638
6 | 21:15.14 | 3:15.32 | 95639 | 110295
7 | 24:30.46 | 5:10.52 | 110296 | 133597
8 | 29:41.23 | 5:26.58 | 133598 | 158105
9 | 35:08.06 | 3:30.69 | 158106 | 173924
10 | 38:39.00 | 3:23.32 | 173925 | 189181
11 | 42:02.32 | 4:21.19 | 189182 | 208775
12 | 46:23.51 | 3:48.35 | 208776 | 225910
13 | 50:12.11 | 4:50.21 | 225911 | 247681
14 | 55:02.32 | 3:38.52 | 247682 | 264083
15 | 58:41.09 | 6:11.32 | 264084 | 291940-Range status and errors-Selected range-Filename G:\CD\ABBA - Voulez-Vous (2010, DE).wav-Peak level 98.8 %
Extraction speed 6.2 X
Range quality 100.0 %
Test CRC B4868099
Copy CRC B4868099
Copy OK-No errors occurred-AccurateRip summary-Track 1 accurately ripped (confidence 3) [52B8D9C7] (AR v2)
Track 2 accurately ripped (confidence 3) [0509C4F3] (AR v2)
Track 3 accurately ripped (confidence 3) [963664CE] (AR v2)
Track 4 accurately ripped (confidence 3) [A5993BFE] (AR v2)
Track 5 accurately ripped (confidence 3) [EBCA098F] (AR v2)
Track 6 accurately ripped (confidence 3) [CE278843] (AR v2)
Track 7 accurately ripped (confidence 3) [27278C38] (AR v2)
Track 8 accurately ripped (confidence 3) [B66C6ED2] (AR v2)
Track 9 accurately ripped (confidence 3) [CF20B0F0] (AR v2)
Track 10 accurately ripped (confidence 3) [EB59BE9F] (AR v2)
Track 11 accurately ripped (confidence 3) [E154D1EE] (AR v2)
Track 12 accurately ripped (confidence 3) [B93C4221] (AR v2)
Track 13 accurately ripped (confidence 3) [89F6F670] (AR v2)
Track 14 accurately ripped (confidence 3) [A6873220] (AR v2)
Track 15 accurately ripped (confidence 3) [81158330] (AR v2)-All tracks accurately ripped-End of status report-==== Log checksum 7CEAD5E08CED0A27A835793B54E6C6EBB60733BDFCE00B6A51BC2A0E51C8C1C2 ====

Back, CD, Matrix

1980 - ABBA - Super Trouper (2011, Remastered, Deluxe Edition, Polar, 060252746446) - 01:03:57

Треклист:
01. Super Trouper - 4:13
02. The Winner Takes It All - 4:57
03. On And On And On - 3:42
04. Andante, Andante - 4:41
05. Me And I - 4:57
06. Happy New Year - 4:24
07. Our Last Summer - 4:21
08. The Piper - 3:27
09. Lay All Your Love On Me - 4:35
10. The Way Old Friends Do - 3:01
Bonus Tracks :
11. Elaine - 3:46
12. On And On And On (Full Length Version, Stereo Mix) - 4:15
13. Put On Your White Sombrero - 4:28
14. Andante, Andante (Spanish Version) - 4:42
15. Felicidad (Spanish Version Of Happy New Year) - 4:27

DVD из этого издания -

Лог создания рипа (EAC)

Exact Audio Copy V1.0 beta 3 from 29. August 2011-EAC extraction logfile from 13. April 2013, 18:40-ABBA / Super Trouper (2011, Deluxe Edition)-Used drive  : ATAPI   iHAS124   B   Adapter: 2  ID: 0-Read mode               : Secure
Utilize accurate stream : Yes
Defeat audio cache : Yes
Make use of C2 pointers : No-Read offset correction : 6
Overread into Lead-In and Lead-Out : No
Fill up missing offset samples with silence : Yes
Delete leading and trailing silent blocks : No
Null samples used in CRC calculations : Yes
Used interface : Native Win32 interface for Win NT & 2000-Used output format : User Defined Encoder
Selected bitrate : 1024 kBit/s
Quality : High
Add ID3 tag : No
Command line compressor : C:\Program Files (x86)\Exact Audio Copy\FLAC\FLAC.EXE
Additional command line options : -8 -V -T "ARTIST=%artist%" -T "TITLE=%title%" -T "ALBUM=%albumtitle%" -T "DATE=%year%" -T "TRACKNUMBER=%tracknr%" -T "GENRE=%genre%" -T "PERFORMER=%albuminterpret%" -T "COMPOSER=%composer%" %haslyrics%--tag-from-file=LYRICS="%lyricsfile%"%haslyrics% -T "ALBUMARTIST=%albumartist%" -T "DISCNUMBER=%cdnumber%" -T "TOTALDISCS=%totalcds%" -T "TOTALTRACKS=%numtracks%" -T "COMMENT=%comment%" %source% -o %dest%-TOC of the extracted CD-Track | Start | Length | Start sector | End sector
---------------------------------------------------------
1 | 0:00.00 | 4:13.10 | 0 | 18984
2 | 4:13.10 | 4:57.07 | 18985 | 41266
3 | 9:10.17 | 3:42.03 | 41267 | 57919
4 | 12:52.20 | 4:40.50 | 57920 | 78969
5 | 17:32.70 | 4:56.65 | 78970 | 101234
6 | 22:29.60 | 4:24.15 | 101235 | 121049
7 | 26:54.00 | 4:20.72 | 121050 | 140621
8 | 31:14.72 | 3:27.03 | 140622 | 156149
9 | 34:42.00 | 4:35.27 | 156150 | 176801
10 | 39:17.27 | 3:00.65 | 176802 | 190366
11 | 42:18.17 | 3:46.18 | 190367 | 207334
12 | 46:04.35 | 4:14.47 | 207335 | 226431
13 | 50:19.07 | 4:27.62 | 226432 | 246518
14 | 54:46.69 | 4:42.28 | 246519 | 267696
15 | 59:29.22 | 4:27.28 | 267697 | 287749-Range status and errors-Selected range-Filename G:\CD\ABBA - Super Trouper (2011, DE).wav-Peak level 100.0 %
Extraction speed 6.1 X
Range quality 100.0 %
Test CRC C965C913
Copy CRC C965C913
Copy OK-No errors occurred-AccurateRip summary-Track 1 accurately ripped (confidence 5) [6573F995] (AR v2)
Track 2 accurately ripped (confidence 5) [C510806B] (AR v2)
Track 3 accurately ripped (confidence 5) [0628968A] (AR v2)
Track 4 accurately ripped (confidence 5) [78D2FD23] (AR v2)
Track 5 accurately ripped (confidence 5) [DAF5F9A8] (AR v2)
Track 6 accurately ripped (confidence 5) [28750FA7] (AR v2)
Track 7 accurately ripped (confidence 5) [3AF8A1EB] (AR v2)
Track 8 accurately ripped (confidence 5) [ECE36E41] (AR v2)
Track 9 accurately ripped (confidence 5) [BFA0EE0C] (AR v2)
Track 10 accurately ripped (confidence 5) [177975E4] (AR v2)
Track 11 accurately ripped (confidence 5) [4EE5800A] (AR v2)
Track 12 accurately ripped (confidence 5) [39855608] (AR v2)
Track 13 accurately ripped (confidence 5) [4AFDB9D8] (AR v2)
Track 14 accurately ripped (confidence 5) [2745398A] (AR v2)
Track 15 accurately ripped (confidence 5) [F737D2E7] (AR v2)-All tracks accurately ripped-End of status report-==== Log checksum 46DEFD8D1B630C5C195C3CE4138B242BE8E73C4EE2D120E429A81F857F4863D7 ====

Back, CD, Matrix

1980 - ABBA - Gracias Por La Musica (2014, Remastered, Deluxe Edition, CD+DVD, Polar, 00602537865734) - 01:02:01

Треклист:
01. Gracias Por La Musica (Thank You For The Music) - 3:50
02. Reina Danzante (Dancing Queen) - 4:02
03. Al Andar (Move On) - 4:43
04. .Dame! .Dame! .Dame! (Gimme! Gimme! Gimme! (A Man After Midnight)) - 4:50
05. Fernando - 4:17
06. Estoy Sonando (I Have A Dream) - 4:38
07. Mamma Mia - 3:33
08. Hasta Manana - 3:09
09. Conociendome, Conociendote (Knowing Me, Knowing You) - 4:04
10. Chiquitita - 5:38
Extra Bonus Tracks :
11. Ring Ring (Bonus Track) - 3:02
12. Andante, Andante (Bonus Track) - 4:40
13. Felicidad (Happy New Year) (Bonus Track) - 4:25
14. No Hay A Quien Culpar (When All Is Said And Done) (Bonus Track) - 3:14
15. Se Me Esta Escapando (Slipping Through My Fingers) (Bonus Track) - 3:55

DVD из этого издания -

Лог создания рипа (EAC)

Exact Audio Copy V1.0 beta 3 from 29. August 2011-EAC extraction logfile from 4. December 2014, 21:34-ABBA / Gracias Por La Musica (2014, Deluxe Edition)-Used drive  : ATAPI   iHAS124   B   Adapter: 1  ID: 0-Read mode               : Secure
Utilize accurate stream : Yes
Defeat audio cache : Yes
Make use of C2 pointers : No-Read offset correction : 6
Overread into Lead-In and Lead-Out : No
Fill up missing offset samples with silence : Yes
Delete leading and trailing silent blocks : No
Null samples used in CRC calculations : Yes
Used interface : Installed external ASPI interface-Used output format : User Defined Encoder
Selected bitrate : 128 kBit/s
Quality : High
Add ID3 tag : Yes
Command line compressor : C:\Program Files (x86)\Exact Audio Copy\Flac\flac.exe
Additional command line options : -V -8 -T "Date=%year%" -T "Genre=%genre%" %source%-TOC of the extracted CD-Track | Start | Length | Start sector | End sector
---------------------------------------------------------
1 | 0:00.00 | 3:49.58 | 0 | 17232
2 | 3:49.58 | 4:02.00 | 17233 | 35382
3 | 7:51.58 | 4:43.09 | 35383 | 56616
4 | 12:34.67 | 4:50.34 | 56617 | 78400
5 | 17:25.26 | 4:17.22 | 78401 | 97697
6 | 21:42.48 | 4:38.29 | 97698 | 118576
7 | 26:21.02 | 3:33.30 | 118577 | 134581
8 | 29:54.32 | 3:09.05 | 134582 | 148761
9 | 33:03.37 | 4:03.43 | 148762 | 167029
10 | 37:07.05 | 5:38.03 | 167030 | 192382
11 | 42:45.08 | 3:01.45 | 192383 | 206002
12 | 45:46.53 | 4:40.33 | 206003 | 227035
13 | 50:27.11 | 4:25.06 | 227036 | 246916
14 | 54:52.17 | 3:13.43 | 246917 | 261434
15 | 58:05.60 | 3:55.11 | 261435 | 279070-Range status and errors-Selected range-Filename G:\CD\1\ABBA - Gracias Por La Musica (2014, DE).wav-Peak level 98.8 %
Extraction speed 6.0 X
Range quality 100.0 %
Test CRC 76EC7EE9
Copy CRC 76EC7EE9
Copy OK-No errors occurred-AccurateRip summary-Track 1 not present in database
Track 2 not present in database
Track 3 not present in database
Track 4 not present in database
Track 5 not present in database
Track 6 not present in database
Track 7 not present in database
Track 8 not present in database
Track 9 not present in database
Track 10 not present in database
Track 11 not present in database
Track 12 not present in database
Track 13 not present in database
Track 14 not present in database
Track 15 not present in database-None of the tracks are present in the AccurateRip database-End of status report----- CUETools DB Plugin V2.1.3-[CTDB TOCID: m3voFt77R4eS3wseA.uRFRrKmyU-] found, Submit result: m3voFt77R4eS3wseA.uRFRrKmyU- has been confirmed
[4fdcf20b] (1/1) Accurately ripped-==== Log checksum 2A1508575A2821A5C3826F667C11F3BC478291E999974CD1B3F3057B6CF08479 ====

Back, CD, Matrix

1981 - ABBA - The Visitors (2012, Remastered, Deluxe Edition, Polar, 3706261) - 01:14:01

Треклист:
01. The Visitors - 5:48
02. Head Over Heels - 3:49
03. When All Is Said And Done - 3:19
04. Soldiers - 4:41
05. I Let The Music Speak - 5:21
06. One Of Us - 3:57
07. Two For The Price Of One - 3:38
08. Slipping Through My Fingers - 3:54
09. Like An Angel Passing Through My Room - 3:40
Bonus Tracks :
10. Should I Laugh Or Cry - 4:32
11. I Am The City - 4:08
12. You Owe Me One - 3:32
13. Cassandra - 4:55
14. Under Attack - 3:49
15. The Day Before You Came - 5:51
Extra Bonus Tracks :
16. From A Twinkling Star To A Passing Angel (Demos) - 9:08

DVD из этого издания -

Лог создания рипа (EAC)

Exact Audio Copy V1.0 beta 3 from 29. August 2011-EAC extraction logfile from 13. April 2013, 20:41-ABBA / The Visitors (2012, Deluxe Edition)-Used drive  : ATAPI   iHAS124   B   Adapter: 2  ID: 0-Read mode               : Secure
Utilize accurate stream : Yes
Defeat audio cache : Yes
Make use of C2 pointers : No-Read offset correction : 6
Overread into Lead-In and Lead-Out : No
Fill up missing offset samples with silence : Yes
Delete leading and trailing silent blocks : No
Null samples used in CRC calculations : Yes
Used interface : Native Win32 interface for Win NT & 2000-Used output format : User Defined Encoder
Selected bitrate : 1024 kBit/s
Quality : High
Add ID3 tag : No
Command line compressor : C:\Program Files (x86)\Exact Audio Copy\FLAC\FLAC.EXE
Additional command line options : -8 -V -T "ARTIST=%artist%" -T "TITLE=%title%" -T "ALBUM=%albumtitle%" -T "DATE=%year%" -T "TRACKNUMBER=%tracknr%" -T "GENRE=%genre%" -T "PERFORMER=%albuminterpret%" -T "COMPOSER=%composer%" %haslyrics%--tag-from-file=LYRICS="%lyricsfile%"%haslyrics% -T "ALBUMARTIST=%albumartist%" -T "DISCNUMBER=%cdnumber%" -T "TOTALDISCS=%totalcds%" -T "TOTALTRACKS=%numtracks%" -T "COMMENT=%comment%" %source% -o %dest%-TOC of the extracted CD-Track | Start | Length | Start sector | End sector
---------------------------------------------------------
1 | 0:00.00 | 5:47.53 | 0 | 26077
2 | 5:47.53 | 3:48.52 | 26078 | 43229
3 | 9:36.30 | 3:18.44 | 43230 | 58123
4 | 12:54.74 | 4:40.61 | 58124 | 79184
5 | 17:35.60 | 5:21.26 | 79185 | 103285
6 | 22:57.11 | 3:57.01 | 103286 | 121061
7 | 26:54.12 | 3:37.53 | 121062 | 137389
8 | 30:31.65 | 3:53.54 | 137390 | 154918
9 | 34:25.44 | 3:39.71 | 154919 | 171414
10 | 38:05.40 | 4:32.25 | 171415 | 191839
11 | 42:37.65 | 4:08.03 | 191840 | 210442
12 | 46:45.68 | 3:32.09 | 210443 | 226351
13 | 50:18.02 | 4:55.26 | 226352 | 248502
14 | 55:13.28 | 3:48.42 | 248503 | 265644
15 | 59:01.70 | 5:51.10 | 265645 | 291979
16 | 64:53.05 | 9:07.66 | 291980 | 333070-Range status and errors-Selected range-Filename G:\CD\ABBA - The Visitors (2012, DE).wav-Peak level 98.8 %
Extraction speed 6.7 X
Range quality 100.0 %
Test CRC 029C673D
Copy CRC 029C673D
Copy OK-No errors occurred-AccurateRip summary-Track 1 accurately ripped (confidence 4) [4330C610] (AR v1)
Track 2 accurately ripped (confidence 4) [55C77297] (AR v1)
Track 3 accurately ripped (confidence 4) [0EECEC9B] (AR v1)
Track 4 accurately ripped (confidence 4) [30EDF460] (AR v1)
Track 5 accurately ripped (confidence 4) [6B6A27AA] (AR v1)
Track 6 accurately ripped (confidence 4) [E4D88376] (AR v1)
Track 7 accurately ripped (confidence 4) [E2F6202A] (AR v1)
Track 8 accurately ripped (confidence 4) [81B2135E] (AR v1)
Track 9 accurately ripped (confidence 4) [57D74C0B] (AR v1)
Track 10 accurately ripped (confidence 4) [6EC51147] (AR v1)
Track 11 accurately ripped (confidence 4) [F616D89E] (AR v1)
Track 12 accurately ripped (confidence 4) [B2C7F122] (AR v1)
Track 13 accurately ripped (confidence 4) [8C1D0023] (AR v1)
Track 14 accurately ripped (confidence 4) [5D2D91CD] (AR v1)
Track 15 accurately ripped (confidence 4) [6C5D4259] (AR v1)
Track 16 accurately ripped (confidence 4) [DB8533DD] (AR v1)-All tracks accurately ripped-End of status report-==== Log checksum 1891CFEAA4563D81C7E073778BB943C178ABB9E8A9371A4DFB8BFF5BE6621882 ====

Back, CD, Matrix

Compilation Album

1992 - ABBA - GOLD (2014, Remastered, 40th Anniversary Edition, 3CD, Polar, 060253740130) - 03:51:54

Треклист:-CD1 - ABBA Gold - 01:19:08
01. Dancing Queen - 3:53
02. Knowing Me, Knowing You - 4:04
03. Take A Chance On Me - 4:09
04. Mamma Mia - 3:33
05. Lay All Your Love On Me - 4:35
06. Super Trouper - 4:14
07. I Have A Dream - 4:46
08. The Winner Takes It All - 4:57
09. Money, Money, Money - 3:09
10. S.O.S - 3:23
11. Chiquita - 5:28
12. Fernando - 4:15
13. Voulez Vous - 5:09
14. Gimme! Gimme! Gimme! (A Man After Midnight ) - 4:51
15. Does Your Mother Know - 3:16
16. One Of Us - 3:57
17. The Name Of The Game - 4:54
18. Thank You For The Music - 3:51
19. Waterloo - 2:46

CD2 - More ABBA Gold - 01:18:56
01. Summer Night City - 3:37
02. Angeleyes - 4:23
03. The Day Before You Came - 5:51
04. Eagle - 4:25
05. I Do, I Do, I Do, I Do, I Do - 3:17
06. So Long - 3:11
07. Honey Honey - 2:58
08. The Visitors - 5:47
09. Our Last Summer - 4:21
10. On & on & on - 3:45
11. Ring Ring - 3:06
12. I Wonder (Departure) - 4:33
13. Lovelight - 3:49
14. Head Over Heels - 3:51
15. When I Kissed the Teacher - 3:03
16. I Am the City - 4:03
17. Cassandra - 4:54
18. Under Attack - 3:50
19. When All Is Said and Done - 3:18
20. The Way Old Friends Do - 2:54

CD3 - B-Sides - 01:13:51
01. She's My Kind of Girl - 2:46
02. I Am Just a Girl - 3:02
03. Gonna Sing You My Love Song - 3:38
04. King Kong Song - 3:12
05. I've Been Waiting For You - 3:40
06. Rock Me - 3:05
07. Man In the Middle - 3:01
08. Intermezzo No.1 - 3:46
09. That's Me - 3:15
10. Crazy World - 3:45
11. Happy Hawaii - 4:25
12. I'm a Marionette - 4:04
13. Medley Pick a Bale of Cotton - 4:19
14. Kisses of Fire - 3:17
15. The King Has Lost His Crown - 3:33
16. Elaine - 3:45
17. The Piper - 3:27
18. Andante, Andante - 4:40
19. Should I Laugh or Cry - 4:30
20. Soldiers - 4:40

Лог создания рипа (EAC)

CD1

Exact Audio Copy V1.0 beta 3 from 29. August 2011-EAC extraction logfile from 17. May 2014, 6:48-ABBA / Gold (40th Anniversary Edition) CD1 - ABBA Gold-Used drive  : ATAPI   iHAS124   B   Adapter: 1  ID: 0-Read mode               : Secure
Utilize accurate stream : Yes
Defeat audio cache : Yes
Make use of C2 pointers : No-Read offset correction : 6
Overread into Lead-In and Lead-Out : No
Fill up missing offset samples with silence : Yes
Delete leading and trailing silent blocks : No
Null samples used in CRC calculations : Yes
Used interface : Installed external ASPI interface-Used output format : User Defined Encoder
Selected bitrate : 128 kBit/s
Quality : High
Add ID3 tag : Yes
Command line compressor : C:\Program Files (x86)\Exact Audio Copy\Flac\flac.exe
Additional command line options : -V -8 %source%-TOC of the extracted CD-Track | Start | Length | Start sector | End sector
---------------------------------------------------------
1 | 0:00.00 | 3:53.07 | 0 | 17481
2 | 3:53.07 | 4:03.61 | 17482 | 35767
3 | 7:56.68 | 4:08.61 | 35768 | 54428
4 | 12:05.54 | 3:32.72 | 54429 | 70400
5 | 15:38.51 | 4:34.38 | 70401 | 90988
6 | 20:13.14 | 4:13.59 | 90989 | 110022
7 | 24:26.73 | 4:45.40 | 110023 | 131437
8 | 29:12.38 | 4:57.21 | 131438 | 153733
9 | 34:09.59 | 3:08.59 | 153734 | 167892
10 | 37:18.43 | 3:23.27 | 167893 | 183144
11 | 40:41.70 | 5:27.68 | 183145 | 207737
12 | 46:09.63 | 4:14.57 | 207738 | 226844
13 | 50:24.45 | 5:08.59 | 226845 | 250003
14 | 55:33.29 | 4:51.12 | 250004 | 271840
15 | 60:24.41 | 3:15.42 | 271841 | 286507
16 | 63:40.08 | 3:56.43 | 286508 | 304250
17 | 67:36.51 | 4:54.34 | 304251 | 326334
18 | 72:31.10 | 3:50.46 | 326335 | 343630
19 | 76:21.56 | 2:45.60 | 343631 | 356065-Range status and errors-Selected range-Filename G:\CD\ABBA - Gold. CD1 - ABBA Gold.wav-Peak level 98.1 %
Extraction speed 9.8 X
Range quality 100.0 %
Test CRC F506C75A
Copy CRC F506C75A
Copy OK-No errors occurred-AccurateRip summary-Track 1 accurately ripped (confidence 175) [412C51AF] (AR v2)
Track 2 accurately ripped (confidence 172) [3AF8B11A] (AR v2)
Track 3 accurately ripped (confidence 173) [ACDE2F8A] (AR v2)
Track 4 accurately ripped (confidence 170) [CF823C3A] (AR v2)
Track 5 accurately ripped (confidence 170) [B2E2D99B] (AR v2)
Track 6 accurately ripped (confidence 171) [ED8F6F63] (AR v2)
Track 7 accurately ripped (confidence 171) [F849D30B] (AR v2)
Track 8 accurately ripped (confidence 172) [75CB6FB3] (AR v2)
Track 9 accurately ripped (confidence 172) [6E64379F] (AR v2)
Track 10 accurately ripped (confidence 170) [F7833F61] (AR v2)
Track 11 accurately ripped (confidence 170) [D0B8A610] (AR v2)
Track 12 accurately ripped (confidence 170) [7A1C3C0B] (AR v2)
Track 13 accurately ripped (confidence 170) [D5193193] (AR v2)
Track 14 accurately ripped (confidence 172) [353C800A] (AR v2)
Track 15 accurately ripped (confidence 170) [D2603131] (AR v2)
Track 16 accurately ripped (confidence 169) [60373A1E] (AR v2)
Track 17 accurately ripped (confidence 166) [9FBC380E] (AR v2)
Track 18 accurately ripped (confidence 167) [45BCF74E] (AR v2)
Track 19 accurately ripped (confidence 165) [32A18D0A] (AR v2)-All tracks accurately ripped-End of status report----- CUETools DB Plugin V2.1.3-[CTDB TOCID: 3B8kgj57RVPavvW9ayxU6og0kp0-] found, Submit result: 3B8kgj57RVPavvW9ayxU6og0kp0- has been confirmed
[e9b28027] (242/259) Accurately ripped
[9c25b174] (001/259) No match
[976a1b5e] (001/259) No match
[ec7d567c] (001/259) No match
[a235c32f] (001/259) No match
[2729c503] (001/259) No match
[34ea3136] (001/259) No match
[d076224e] (001/259) No match
[e8ae2da8] (001/259) No match
[626a6f54] (001/259) No match
[ac889f26] (001/259) No match
[b410bc29] (001/259) No match
[45904832] (001/259) No match
[5911ffe3] (001/259) No match
[09f9fdc0] (001/259) No match
[11fdbb48] (001/259) No match
[1ba7cef4] (001/259) No match
[82209e77] (001/259) No match-==== Log checksum A25351E638C4AAA7AD6294223D1E5F2B708EA25E88DCE081BD5767704D14A0D7 ====

CD2

Exact Audio Copy V1.0 beta 3 from 29. August 2011-EAC extraction logfile from 17. May 2014, 8:10-ABBA / Gold (40th Anniversary Edition) CD2 - More ABBA Gold-Used drive  : Optiarc BD RW BD-5300S   Adapter: 0  ID: 0-Read mode               : Secure
Utilize accurate stream : Yes
Defeat audio cache : Yes
Make use of C2 pointers : No-Read offset correction : 6
Overread into Lead-In and Lead-Out : No
Fill up missing offset samples with silence : Yes
Delete leading and trailing silent blocks : No
Null samples used in CRC calculations : Yes
Used interface : Installed external ASPI interface-Used output format : User Defined Encoder
Selected bitrate : 128 kBit/s
Quality : High
Add ID3 tag : Yes
Command line compressor : C:\Program Files (x86)\Exact Audio Copy\Flac\flac.exe
Additional command line options : -V -8 %source%-TOC of the extracted CD-Track | Start | Length | Start sector | End sector
---------------------------------------------------------
1 | 0:00.00 | 3:36.40 | 0 | 16239
2 | 3:36.40 | 4:22.68 | 16240 | 35957
3 | 7:59.33 | 5:51.12 | 35958 | 62294
4 | 13:50.45 | 4:24.49 | 62295 | 82143
5 | 18:15.19 | 3:17.20 | 82144 | 96938
6 | 21:32.39 | 3:10.60 | 96939 | 111248
7 | 24:43.24 | 2:58.20 | 111249 | 124618
8 | 27:41.44 | 5:46.65 | 124619 | 150633
9 | 33:28.34 | 4:21.00 | 150634 | 170208
10 | 37:49.34 | 3:44.40 | 170209 | 187048
11 | 41:33.74 | 3:06.10 | 187049 | 201008
12 | 44:40.09 | 4:33.37 | 201009 | 221520
13 | 49:13.46 | 3:49.08 | 221521 | 238703
14 | 53:02.54 | 3:50.72 | 238704 | 256025
15 | 56:53.51 | 3:02.55 | 256026 | 269730
16 | 59:56.31 | 4:02.67 | 269731 | 287947
17 | 63:59.23 | 4:54.05 | 287948 | 310002
18 | 68:53.28 | 3:49.58 | 310003 | 327235
19 | 72:43.11 | 3:18.32 | 327236 | 342117
20 | 76:01.43 | 2:54.10 | 342118 | 355177-Range status and errors-Selected range-Filename G:\CD\ABBA - Gold. CD2 - More ABBA Gold.wav-Peak level 96.8 %
Extraction speed 3.9 X
Range quality 100.0 %
Test CRC C23B257C
Copy CRC C23B257C
Copy OK-No errors occurred-AccurateRip summary-Track 1 accurately ripped (confidence 91) [A83A687A] (AR v2)
Track 2 accurately ripped (confidence 91) [C4F1C08E] (AR v2)
Track 3 accurately ripped (confidence 92) [8574607A] (AR v2)
Track 4 accurately ripped (confidence 91) [18F3FD92] (AR v2)
Track 5 accurately ripped (confidence 91) [26CD3CE7] (AR v2)
Track 6 accurately ripped (confidence 91) [2A25E4AC] (AR v2)
Track 7 accurately ripped (confidence 92) [7B62BFE8] (AR v2)
Track 8 accurately ripped (confidence 90) [B1FBFA1D] (AR v2)
Track 9 accurately ripped (confidence 92) [35CE863B] (AR v2)
Track 10 accurately ripped (confidence 92) [FDFF030C] (AR v2)
Track 11 accurately ripped (confidence 92) [E6727E65] (AR v2)
Track 12 accurately ripped (confidence 92) [2A966150] (AR v2)
Track 13 accurately ripped (confidence 92) [57B1EB54] (AR v2)
Track 14 accurately ripped (confidence 92) [7A0A8946] (AR v2)
Track 15 accurately ripped (confidence 92) [AACF1C89] (AR v2)
Track 16 accurately ripped (confidence 88) [81A82316] (AR v2)
Track 17 accurately ripped (confidence 86) [108CC582] (AR v2)
Track 18 accurately ripped (confidence 85) [D3F0276A] (AR v2)
Track 19 accurately ripped (confidence 83) [4F787BA6] (AR v2)
Track 20 accurately ripped (confidence 81) [371A0D77] (AR v2)-All tracks accurately ripped-End of status report----- CUETools DB Plugin V2.1.3-[CTDB TOCID: wgLmamD4dvfnUwPDsqK0kJ2IjYc-] found, Submit result: wgLmamD4dvfnUwPDsqK0kJ2IjYc- has been confirmed
[9c0682ff] (73/77) Accurately ripped
[09d8cbdc] (01/77) No match
[5280fcde] (01/77) No match
[b8fa5dea] (01/77) No match
[0907b67c] (01/77) No match-==== Log checksum E4BA150DD3DC727677B5C4BC4E75125C6E906E43503A5EF2F41ACD867877C247 ====

CD3

Exact Audio Copy V1.0 beta 3 from 29. August 2011-EAC extraction logfile from 17. May 2014, 8:40-ABBA / Gold (40th Anniversary Edition) CD3 - B-Sides-Used drive  : ATAPI   iHAS124   B   Adapter: 1  ID: 0-Read mode               : Secure
Utilize accurate stream : Yes
Defeat audio cache : Yes
Make use of C2 pointers : No-Read offset correction : 6
Overread into Lead-In and Lead-Out : No
Fill up missing offset samples with silence : Yes
Delete leading and trailing silent blocks : No
Null samples used in CRC calculations : Yes
Used interface : Installed external ASPI interface-Used output format : User Defined Encoder
Selected bitrate : 128 kBit/s
Quality : High
Add ID3 tag : Yes
Command line compressor : C:\Program Files (x86)\Exact Audio Copy\Flac\flac.exe
Additional command line options : -V -8 %source%-TOC of the extracted CD-Track | Start | Length | Start sector | End sector
---------------------------------------------------------
1 | 0:00.00 | 2:45.48 | 0 | 12422
2 | 2:45.48 | 3:02.36 | 12423 | 26108
3 | 5:48.09 | 3:37.42 | 26109 | 42425
4 | 9:25.51 | 3:12.33 | 42426 | 56858
5 | 12:38.09 | 3:40.00 | 56859 | 73358
6 | 16:18.09 | 3:04.40 | 73359 | 87198
7 | 19:22.49 | 3:01.09 | 87199 | 100782
8 | 22:23.58 | 3:46.36 | 100783 | 117768
9 | 26:10.19 | 3:15.37 | 117769 | 132430
10 | 29:25.56 | 3:44.70 | 132431 | 149300
11 | 33:10.51 | 4:24.69 | 149301 | 169169
12 | 37:35.45 | 4:04.04 | 169170 | 187473
13 | 41:39.49 | 4:19.34 | 187474 | 206932
14 | 45:59.08 | 3:16.39 | 206933 | 221671
15 | 49:15.47 | 3:32.73 | 221672 | 237644
16 | 52:48.45 | 3:44.67 | 237645 | 254511
17 | 56:33.37 | 3:26.39 | 254512 | 270000
18 | 60:00.01 | 4:40.32 | 270001 | 291032
19 | 64:40.33 | 4:30.09 | 291033 | 311291
20 | 69:10.42 | 4:40.15 | 311292 | 332306-Range status and errors-Selected range-Filename G:\CD\ABBA - Gold. CD3 - B-Sides.wav-Peak level 97.7 %
Extraction speed 9.6 X
Range quality 100.0 %
Test CRC DE647D56
Copy CRC DE647D56
Copy OK-No errors occurred-AccurateRip summary-Track 1 accurately ripped (confidence 3) [DA9C2753] (AR v2)
Track 2 accurately ripped (confidence 3) [66455747] (AR v2)
Track 3 accurately ripped (confidence 3) [46DECDAC] (AR v2)
Track 4 accurately ripped (confidence 3) [B6455328] (AR v2)
Track 5 accurately ripped (confidence 3) [A03D560B] (AR v2)
Track 6 accurately ripped (confidence 3) [58B00F08] (AR v2)
Track 7 accurately ripped (confidence 3) [F2248C17] (AR v2)
Track 8 accurately ripped (confidence 3) [ED1F43CE] (AR v2)
Track 9 accurately ripped (confidence 3) [35A91D64] (AR v2)
Track 10 accurately ripped (confidence 3) [701F5691] (AR v2)
Track 11 accurately ripped (confidence 3) [36C9E88C] (AR v2)
Track 12 accurately ripped (confidence 3) [4E6ED73A] (AR v2)
Track 13 accurately ripped (confidence 3) [292CE2A4] (AR v2)
Track 14 accurately ripped (confidence 3) [AB3AD88B] (AR v2)
Track 15 accurately ripped (confidence 3) [5D9D9940] (AR v2)
Track 16 accurately ripped (confidence 3) [59486634] (AR v2)
Track 17 accurately ripped (confidence 3) [DEB7F6B1] (AR v2)
Track 18 accurately ripped (confidence 3) [97973562] (AR v2)
Track 19 accurately ripped (confidence 3) [84D53FF2] (AR v2)
Track 20 accurately ripped (confidence 3) [925654A7] (AR v2)-All tracks accurately ripped-End of status report----- CUETools DB Plugin V2.1.3-[CTDB TOCID: myJZBoegw6TZ8fDJUnID.sk_M4A-] found, Submit result: myJZBoegw6TZ8fDJUnID.sk_M4A- has been confirmed
[83704a3e] (8/8) Accurately ripped-==== Log checksum 7D7D2914EB85C574E628E0388C38773E9C1886ACC180DAD9BCFBDBC5C9369937 ====

Back, CD, Matrix




Связанные раздачи

Добавлен Тема Отв. Размер S / L Ссылка
22-Сен-19 08:48 ABBA - ABBA (Deluxe Edition) (Polar) [2012, Euro disco, Pop rock, DVD5] 0 4.31 GB 0 | 0 Скачать .torrent
22-Сен-19 08:47 ABBA - Gracias Por La Musica [2014, Euro disco, Pop rock, DVD5] 0 2.66 GB 0 | 0 Скачать .torrent
26-Апр-19 18:26 (Italo-Disco, Dance-pop, Euro-Disco) [WEB] Gazebo - Italo by Numbers - 2018, FLAC (tracks), lossless 0 521 MB 0 | 0 Скачать .torrent
Вы не можете начинать темы
Вы не можете отвечать на сообщения
Вы не можете редактировать свои сообщения
Вы не можете удалять свои сообщения
Вы не можете голосовать в опросах
Вы не можете прикреплять файлы к сообщениям
Вы не можете скачивать файлы

Текущее время: 06-Дек 21:01
Часовой пояс: UTC ± 0