Автор Сообщение
Andreyka

3502

Наличие запрета:

Пол: Мужской

Стаж: 15 дня

Сообщений: 4

Откуда: Москва

Искусство ограбления / The Burnt Orange Heresy«-»--
Год выпуска » 2019
Страна » Великобритания , Италия
Жанр » боевик, триллер, драма
Продолжительность » 01:32:53
Перевод » Профессиональный многоголосый [КОЛОБОК]
Субтитры » Отсутствуют
В ролях
» Элизабет Дебики, Клас Банг, Дональд Сазерленд, Мик Джаггер, Розалинд Халстэд, Кэти МакГоверн, Фламиния Фегаротти, Алессандро Фабрици, Алексия Джастин Мюррэй, Раснет Каур
Режиссёр
» Джузеппе Капотонди- » Италия, 1970-е. Харизматичный арт-критик Джеймс Фигерас знакомится с привлекательной американкой Беренис Холлис. Новоиспечённые любовники прибывают в роскошное поместье у озера Комо на севере Италии, где живёт адвокат и коллекционер искусства Кессиди. Он рассказывает, что покровительствует художнику-затворнику Джерому Дебни, который почти никогда не выходит из своей студии и не делится с миром своими картинами. Молодой парочке Кессиди поручает необычное задание - похитить из мастерской художника последний шедевр.--
Качество » TS
Формат » AVI
Видео кодек » XviD
Аудио кодек » AC3
Видео » MPEG-4 Visual at 1713 Кбит/сек 720 x 304 (2.368) at 23.976 fps
Аудио » AC-3 at 384 Кбит/сек 2 канала, 48,0 КГц Русский
-Имеется реклама от спонсора показа-

Рейтинг

MediaInfo

Общее
Полное имя                               : D:\Фильмы\The.Burnt.Orange.Heresy.2020.Pk.TS.14OOMB.avi
Формат                                   : AVI
Формат/Информация                        : Audio Video Interleave
Размер файла                             : 1,37 Гбайт
Продолжительность                        : 1 ч. 32 м.
Общий поток                              : 2106 Кбит/сек
Программа кодирования                    : VirtualDubMod 1.5.10.3 | (build 2550/release)
Библиотека кодирования                   : VirtualDubMod build 2550/release
Видео
Идентификатор                            : 0
Формат                                   : MPEG-4 Visual
Профиль формата                          : Advanced [email protected]
Настройки формата                        : BVOP2 / Custom Matrix
Параметр BVOP формата                    : 2
Параметр QPel формата                    : Нет
Параметр GMC формата                     : Без точки перехода
Параметр матрицы формата                 : Выборочная
Идентификатор кодека                     : XVID
Идентификатор кодека/Подсказка           : XviD
Продолжительность                        : 1 ч. 32 м.
Битрейт                                  : 1713 Кбит/сек
Ширина                                   : 720 пикселей
Высота                                   : 304 пикселя
Соотношение сторон                       : 2,35:1
Частота кадров                           : 23,976 (24000/1001) кадра/сек
Цветовое пространство                    : YUV
Субдискретизация насыщенности            : 4:2:0
Битовая глубина                          : 8 бит
Тип развёртки                            : Прогрессивная
Метод сжатия                             : С потерями
Бит/(Пиксели*Кадры)                      : 0.326
Размер потока                            : 1,11 Гбайт (81%)
Библиотека кодирования                   : XviD 1.2.1 (UTC 2008-12-04)
Аудио
Идентификатор                            : 1
Формат                                   : AC-3
Формат/Информация                        : Audio Coding 3
Коммерческое название                    : Dolby Digital
Идентификатор кодека                     : 2000
Продолжительность                        : 1 ч. 32 м.
Вид битрейта                             : Постоянный
Битрейт                                  : 384 Кбит/сек
Каналы                                   : 2 канала
ChannelLayout                            : L R
Частота                                  : 48,0 КГц
Частота кадров                           : 31,250 кадров/сек (1536 SPF)
Метод сжатия                             : С потерями
Размер потока                            : 255 Мбайт (18%)
Выравнивание                             : Разделение по промежуткам
Продолжительность промежутка             : 42  мс. (1,00 видеокадр)
Время предзагрузки промежутка            : 500  мс.
ServiceKind/String                       : Complete Main

Скриншоты

Вы не можете начинать темы
Вы не можете отвечать на сообщения
Вы не можете редактировать свои сообщения
Вы не можете удалять свои сообщения
Вы не можете голосовать в опросах
Вы не можете прикреплять файлы к сообщениям
Вы не можете скачивать файлы

Текущее время: 07-Апр 23:05
Часовой пояс: UTC ± 0