Автор Сообщение
sergej644

170

Наличие запрета:

Пол: Мужской

Стаж: 1 год

Сообщений: 4648

Откуда: Atlantic Ocean

 Top Releaser 5 (3000 созданных раздач) Top Seeder 3 (5 терабайт отданного) Top Seeder 4 (10 терабайт отданного) верныйсид За внесенный вклад в развитие сайта За новинки музыки Красивое оформление Меценат Орден от администрации Уважаемый

-Cerrone - DNA--
Год издания: 2020
Страна: France
Жанр: Disco / Nu-Disco / House
Продолжительность: 00:40:36-Лейбл издания: Malligator Preference/ Because Music
Страна-выпуска диска: France
Номер по каталогу: BEC5650325-Формат: FLAC
Битрейт аудио: Lossless
Тип рипа: image +.cue
Наличие сканов в содержимом раздачи: да
-

Трэклист


01. The Impact (5:34)
02. Resolution (3:48)
03. Air Dreaming (4:46)
04. DNA (5:31)
05. I've Got a Rocket (4:12)
06. Let Me Feel (4:09)
07. Close to the Sky (3:34)
08. Experience (4:04)
09. Prediction (4:59)
-

Лог создания рипа

Exact Audio Copy V1.1 from 23. June 2015
EAC extraction logfile from 28. February 2020, 15:00
Cerrone / DNA
Used drive  : MATSHITADVD+-RW SW830   Adapter: 1  ID: 0
Read mode               : Secure
Utilize accurate stream : Yes
Defeat audio cache      : Yes
Make use of C2 pointers : No
Read offset correction                      : 6
Overread into Lead-In and Lead-Out          : No
Fill up missing offset samples with silence : Yes
Delete leading and trailing silent blocks   : No
Null samples used in CRC calculations       : Yes
Used interface                              : Native Win32 interface for Win NT & 2000
Used output format              : User Defined Encoder
Selected bitrate                : 768 kBit/s
Quality                         : High
Add ID3 tag                     : No
Command line compressor         : C:\Program Files (x86)\Exact Audio Copy\FLAC\FLAC.EXE
Additional command line options : -6 -V -T "ARTIST=%artist%" -T "TITLE=%title%" -T "ALBUM=%albumtitle%" -T "DATE=%year%" -T "TRACKNUMBER=%tracknr%" -T "GENRE=%genre%" -T "COMMENT=%comment%" -T "BAND=%albuminterpret%" -T "ALBUMARTIST=%albuminterpret%" -T "COMPOSER=%composer%" %haslyrics%--tag-from-file=LYRICS="%lyricsfile%"%haslyrics% -T "DISCNUMBER=%cdnumber%" -T "TOTALDISCS=%totalcds%" -T "TOTALTRACKS=%numtracks%" %hascover%--picture="%coverfile%"%hascover% %source% -o %dest%
TOC of the extracted CD
     Track |   Start  |  Length  | Start sector | End sector
    ---------------------------------------------------------
        1  |  0:00.00 |  5:33.39 |         0    |    25013
        2  |  5:33.39 |  3:47.58 |     25014    |    42096
        3  |  9:21.22 |  4:45.55 |     42097    |    63526
        4  | 14:07.02 |  5:30.74 |     63527    |    88350
        5  | 19:38.01 |  4:12.23 |     88351    |   107273
        6  | 23:50.24 |  4:08.54 |    107274    |   125927
        7  | 27:59.03 |  3:33.40 |    125928    |   141942
        8  | 31:32.43 |  4:04.09 |    141943    |   160251
        9  | 35:36.52 |  4:58.48 |    160252    |   182649
Range status and errors
Selected range
     Filename C:\Users\Desktop\lossless-galaxy.ru\ce ro ne\Cerrone - DNA.wav
     Peak level 100.0 %
     Extraction speed 2.7 X
     Range quality 100.0 %
     Test CRC B1683339
     Copy CRC B1683339
     Copy OK
No errors occurred
AccurateRip summary
Track  1  not present in database
Track  2  not present in database
Track  3  not present in database
Track  4  not present in database
Track  5  not present in database
Track  6  not present in database
Track  7  not present in database
Track  8  not present in database
Track  9  not present in database
None of the tracks are present in the AccurateRip database
End of status report

Индексная карта (non-compilant .cue)

REM GENRE Electronic
REM DATE 2020
REM DISCID 78098309
REM COMMENT "ExactAudioCopy v1.1"
PERFORMER "Cerrone"
TITLE "DNA"
FILE "Cerrone - DNA.flac" WAVE
  TRACK 01 AUDIO
    TITLE "  The Impact"
    PERFORMER "Cerrone"
    INDEX 01 00:00:00
  TRACK 02 AUDIO
    TITLE "Resolution"
    PERFORMER "Cerrone"
    INDEX 01 05:33:39
  TRACK 03 AUDIO
    TITLE "Air Dreaming"
    PERFORMER "Cerrone"
    INDEX 01 09:21:22
  TRACK 04 AUDIO
    TITLE "DNA"
    PERFORMER "Cerrone"
    INDEX 01 14:07:02
  TRACK 05 AUDIO
    TITLE " I've Got a Rocket"
    PERFORMER "Cerrone"
    INDEX 01 19:38:01
  TRACK 06 AUDIO
    TITLE "Let Me Feel"
    PERFORMER "Cerrone"
    INDEX 01 23:50:24
  TRACK 07 AUDIO
    TITLE " Close to the Sky"
    PERFORMER "Cerrone"
    INDEX 01 27:59:03
  TRACK 08 AUDIO
    TITLE "Experience"
    PERFORMER "Cerrone"
    INDEX 01 31:32:43
  TRACK 09 AUDIO
    TITLE "Prediction"
    PERFORMER "Cerrone"
    INDEX 01 35:36:52
-

для ознакомления:

https://www.youtube.com/watch?v=u5wmFNq18AU
--
Вы не можете начинать темы
Вы не можете отвечать на сообщения
Вы не можете редактировать свои сообщения
Вы не можете удалять свои сообщения
Вы не можете голосовать в опросах
Вы не можете прикреплять файлы к сообщениям
Вы не можете скачивать файлы

Текущее время: 08-Апр 00:14
Часовой пояс: UTC ± 0